<?xml version="1.0" standalone="no"?>
<!DOCTYPE svg PUBLIC "-//W3C//DTD SVG 1.1//EN" "http://www.w3.org/Graphics/SVG/1.1/DTD/svg11.dtd" >
<svg xmlns="http://www.w3.org/2000/svg">
<metadata>Generated by IcoMoon</metadata>
<defs>
<font id="icons" horiz-adv-x="1024">
<font-face units-per-em="1024" ascent="960" descent="-64" />
<missing-glyph horiz-adv-x="1024" />
<glyph unicode="&#x20;" horiz-adv-x="512" d="" />
<glyph unicode="&#xe900;" glyph-name="add-comment" d="M467.2 360.533h89.6v128h128v89.6h-128v128h-89.6v-128h-128v-89.6h128s0-128 0-128zM76.8 12.8v870.4h870.827v-700.16h-700.16s-170.667-170.667-170.667-170.667zM174.080 280.747h676.693v505.6h-677.12v-506.027zM174.080 280.747v505.6-506.027z" />
<glyph unicode="&#xe901;" glyph-name="add-reply-custom" d="M807.68 140.8v179.2c0 34.133-11.947 62.72-35.413 86.613-23.893 23.893-52.48 35.413-86.613 35.413h-381.013l147.627-147.627-68.693-67.84-264.107 264.107 264.107 264.107 68.693-67.84-147.627-147.627h381.013c60.587 0 112.213-21.333 154.88-64s64-94.293 64-154.88v-179.2h-97.28z" />
<glyph unicode="&#xe902;" glyph-name="arrow--right" d="M676.693 399.36h-514.56v97.28h514.133l-233.387 233.387 69.12 68.267 349.867-349.867-349.867-349.867-69.12 68.267 233.387 233.387v-0.853z" />
<glyph unicode="&#xe903;" glyph-name="arrows--horizontal" d="M365.12 109.12l-114.56 114.88h645.44v64h-645.44l114.56 114.88-45.12 45.12-192-192 192-192 45.12 45.12zM896 640l-192 192-45.12-45.12 114.56-114.88h-645.44v-64h645.44l-114.56-114.88 45.12-45.12 192 192z" />
<glyph unicode="&#xe904;" glyph-name="camera" d="M512 211.2c53.76 0 99.84 18.773 137.387 56.747 37.547 37.547 56.747 83.627 56.747 137.387s-18.773 99.84-56.747 137.387c-37.547 37.547-83.627 56.747-137.387 56.747s-99.84-18.773-137.387-56.747c-37.547-37.547-56.747-83.627-56.747-137.387s18.773-99.84 56.747-137.387c37.547-37.547 83.627-56.747 137.387-56.747zM512 303.36c-28.587 0-52.907 9.813-72.533 29.44s-29.44 43.947-29.44 72.533c0 28.587 9.813 52.907 29.44 72.533s43.947 29.44 72.533 29.44 52.907-9.813 72.533-29.44 29.44-43.947 29.44-72.533-9.813-52.907-29.44-72.533-43.947-29.44-72.533-29.44zM76.8 55.467v699.733h224l82.347 85.333h258.133l82.347-85.333h224v-700.16h-870.827z" />
<glyph unicode="&#xe905;" glyph-name="chat" d="M76.8 12.8v870.4h870.827v-700.16h-700.16l-170.667-170.667zM211.2 280.32h639.147v506.027h-676.693v-542.293s37.12 36.693 37.12 36.693zM174.080 280.32v0zM256.427 362.667h341.333v85.333h-341.76v-85.333zM256.427 490.667h512v85.333h-512.427v-85.333zM256.427 618.667h512v85.333h-512.427v-85.333z" />
<glyph unicode="&#xe906;" glyph-name="checkmark" d="M407.467 183.893l-251.307 251.307 69.12 69.12 182.187-182.187 391.253 391.253 69.12-69.12-460.373-460.373z" />
<glyph unicode="&#xe907;" glyph-name="checkmark--filled" d="M451.413 246.613l304.64 304.64-66.56 66.987-238.080-238.080-118.613 118.613-66.56-66.987s185.173-185.173 185.173-185.173zM512 12.8c-60.587 0-116.907 11.52-169.813 34.133-52.907 23.040-98.987 53.76-138.24 93.013s-69.973 85.333-93.013 138.24c-23.040 52.907-34.133 109.653-34.133 169.813s11.52 116.907 34.133 169.813c23.040 52.907 53.76 98.987 93.013 138.24s85.333 69.973 138.24 93.013c52.907 23.040 109.653 34.133 169.813 34.133s116.907-11.52 169.813-34.133c52.907-23.040 98.987-53.76 138.24-93.013s69.973-85.333 93.013-138.24c23.040-52.907 34.133-109.653 34.133-169.813s-11.52-116.907-34.133-169.813c-23.040-52.907-53.76-98.987-93.013-138.24s-85.333-69.973-138.24-93.013c-52.907-23.040-109.653-34.133-169.813-34.133z" />
<glyph unicode="&#xe908;" glyph-name="checkmark--small-custom" d="M468.48 274.347l258.987 258.987-62.72 62.72-196.267-196.267-93.867 93.867-62.72-62.72 156.587-156.587z" />
<glyph unicode="&#xe909;" glyph-name="chevron--down" d="M512 296.107l-264.107 264.107 67.84 67.84 196.267-196.267 196.267 196.267 67.84-67.84-264.107-264.107z" />
<glyph unicode="&#xe90a;" glyph-name="chevron--left" d="M597.333 183.893l-264.107 264.107 264.107 264.107 67.84-67.84-196.267-196.267 196.267-196.267-67.84-67.84z" />
<glyph unicode="&#xe90b;" glyph-name="chevron--right" d="M529.493 448l-196.267 196.267 67.84 67.84 264.107-264.107-264.107-264.107-67.84 67.84 196.267 196.267z" />
<glyph unicode="&#xe90c;" glyph-name="chevron--sort" d="M512 55.893l-200.96 200.96 69.973 69.973 130.987-130.987 130.987 130.987 69.973-69.973-200.96-200.96zM381.013 565.76l-69.973 69.973 200.96 200.96 200.96-200.96-69.973-69.973-130.987 130.987-130.987-130.987z" />
<glyph unicode="&#xe90d;" glyph-name="chevron--up" d="M315.733 296.107l-67.84 67.84 264.107 264.107 264.107-264.107-67.84-67.84-196.267 196.267s-196.267-196.267-196.267-196.267z" />
<glyph unicode="&#xe90e;" glyph-name="close" d="M273.067 141.227l-67.84 67.84 238.933 238.933-238.933 238.933 67.84 67.84 238.933-238.933 238.933 238.933 67.84-67.84-238.933-238.933 238.933-238.933-67.84-67.84-238.933 238.933s-238.933-238.933-238.933-238.933z" />
<glyph unicode="&#xe90f;" glyph-name="close--filled" d="M361.387 234.667l150.613 150.613 150.613-150.613 62.72 62.72-150.613 150.613 150.613 150.613-62.72 62.72-150.613-150.613-150.613 150.613-62.72-62.72 150.613-150.613-150.613-150.613 62.72-62.72zM512 12.8c-60.587 0-116.907 11.52-169.813 34.133-52.907 23.040-98.987 53.76-138.24 93.013s-69.973 85.333-93.013 138.24c-23.040 52.907-34.133 109.653-34.133 169.813s11.52 116.907 34.133 169.813 53.76 98.987 93.013 138.24c39.253 39.253 85.333 69.973 138.24 93.013s109.653 34.133 169.813 34.133c60.587 0 116.907-11.52 169.813-34.133s98.987-53.76 138.24-93.013 69.973-85.333 93.013-138.24c23.040-52.907 34.133-109.653 34.133-169.813 0-60.587-11.52-116.907-34.133-169.813s-53.76-98.987-93.013-138.24c-39.253-39.253-85.333-69.973-138.24-93.013s-109.653-34.133-169.813-34.133v0zM512 109.653c94.72 0 174.507 32.853 240.213 98.133 65.28 65.28 98.133 145.493 98.133 240.213s-32.853 174.507-98.133 240.213c-65.28 65.28-145.493 98.133-240.213 98.133s-174.507-32.853-240.213-98.133c-65.28-65.28-98.133-145.493-98.133-240.213s32.853-174.507 98.133-240.213c65.28-65.28 145.493-98.133 240.213-98.133z" />
<glyph unicode="&#xe910;" glyph-name="copy--link" d="M465.493 226.133h-166.827c-61.44 0-113.92 21.76-157.013 64.853s-64.853 95.573-64.853 157.013 21.76 113.92 64.853 157.013c43.093 43.093 95.573 64.853 157.013 64.853h166.827v-97.28h-166.827c-34.56 0-64.427-11.947-88.747-36.267s-36.267-53.76-36.267-88.32 11.947-64 36.267-88.32c24.32-24.32 53.76-36.267 88.747-36.267h166.827v-97.28zM335.36 403.627v89.6h353.28v-89.6s-353.28 0-353.28 0zM558.507 226.133v97.28h166.827c34.56 0 64.427 11.947 88.747 36.267s36.267 53.76 36.267 88.32c0 34.56-11.947 64-36.267 88.32s-53.76 36.267-88.747 36.267h-166.827v97.28h166.827c61.44 0 113.92-21.76 157.013-64.853s64.853-95.573 64.853-157.013-21.76-113.92-64.853-157.013c-43.093-43.093-95.573-64.853-157.013-64.853 0 0-166.827 0-166.827 0z" />
<glyph unicode="&#xe911;" glyph-name="email" d="M76.8 98.133v699.733h870.827v-700.16h-870.827zM512 394.24l-338.347 213.333v-412.587h676.693v412.587l-338.347-213.333zM512 487.68l338.347 213.333h-676.693l338.347-213.333zM173.653 607.573v0z" />
<glyph unicode="&#xe912;" glyph-name="equalizer" d="M64 64h256v-64h-256v64zM64 192h256v-64h-256v64zM384 64h256v-64h-256v64zM384 192h256v-64h-256v64zM64 320h256v-64h-256v64zM384 320h256v-64h-256v64zM64 448h256v-64h-256v64zM384 448h256v-64h-256v64zM384 576h256v-64h-256v64zM384 704h256v-64h-256v64zM384 832h256v-64h-256v64zM704 64h256v-64h-256v64zM704 192h256v-64h-256v64z" />
<glyph unicode="&#xe913;" glyph-name="error" d="M512 226.133c14.080 0 26.027 4.693 35.84 14.507 9.813 9.387 14.507 21.333 14.507 35.413s-4.693 26.027-14.507 35.84c-9.387 9.813-21.333 14.507-35.84 14.507s-26.027-4.693-35.84-14.507c-9.813-9.813-14.507-21.76-14.507-35.84s4.693-26.027 14.507-35.413c9.387-9.387 21.333-14.507 35.84-14.507zM463.36 404.907h97.28v261.973h-97.28v-261.973zM512 12.8c-60.587 0-116.907 11.52-169.813 34.133-52.907 23.040-98.987 53.76-138.24 93.013s-69.973 85.333-93.013 138.24c-23.040 52.907-34.133 109.653-34.133 169.813s11.52 116.907 34.133 169.813c23.040 52.907 53.76 98.987 93.013 138.24s85.333 69.973 138.24 93.013c52.907 23.040 109.653 34.133 169.813 34.133s116.907-11.52 169.813-34.133c52.907-23.040 98.987-53.76 138.24-93.013s69.973-85.333 93.013-138.24c23.040-52.907 34.133-109.653 34.133-169.813s-11.52-116.907-34.133-169.813c-23.040-52.907-53.76-98.987-93.013-138.24s-85.333-69.973-138.24-93.013c-52.907-23.040-109.653-34.133-169.813-34.133zM512 109.653c94.72 0 174.507 32.853 240.213 98.133 65.28 65.28 98.133 145.493 98.133 240.213s-32.853 174.507-98.133 240.213c-65.28 65.28-145.493 98.133-240.213 98.133s-174.507-32.853-240.213-98.133c-65.28-65.28-98.133-145.493-98.133-240.213s32.853-174.507 98.133-240.213c65.28-65.28 145.493-98.133 240.213-98.133z" />
<glyph unicode="&#xe914;" glyph-name="headphones-custom" d="M704 160c-17.6 0-32 14.4-32 32v256c0 17.6 14.4 32 32 32h32c34.56 0 68.16-11.2 96-32v32c0 176.64-143.36 320-320 320s-320-143.36-320-320v-32c27.84 20.8 61.44 32 96 32h32c17.6 0 32-14.4 32-32v-256c0-17.6-14.4-32-32-32h-32c-82.24 0-151.040 62.080-159.36 144h-0.64v176c0 212.16 171.84 384 384 384s384-171.84 384-384v-176h-0.64c-8.32-81.92-77.12-144-159.36-144h-32zM736 224c53.12 0 96 42.88 96 96s-42.88 96-96 96v-192zM288 224v192c-53.12 0-96-42.88-96-96s42.88-96 96-96z" />
<glyph unicode="&#xe915;" glyph-name="hinton-plot" d="M64 896h128v-128h-128v128zM320 896h128v-128h-128v128zM576 896h128v-128h-128v128zM832 896h128v-128h-128v128zM64 640h128v-128h-128v128zM320 640h128v-128h-128v128zM576 640h128v-128h-128v128zM832 640h128v-128h-128v128zM64 384h128v-128h-128v128zM320 384h128v-128h-128v128zM576 384h128v-128h-128v128zM832 384h128v-128h-128v128zM64 128h128v-128h-128v128zM320 128h128v-128h-128v128zM576 128h128v-128h-128v128zM832 128h128v-128h-128v128z" />
<glyph unicode="&#xe916;" glyph-name="launch" d="M119.467 55.467v785.067h392.533v-97.28h-295.68v-591.36h591.36v295.68h97.28v-392.533s-785.493 0-785.493 0zM421.973 290.133l-67.84 67.84 385.707 385.707h-142.507v97.28h307.2v-307.2h-97.28v142.507l-385.707-385.707z" />
<glyph unicode="&#xe917;" glyph-name="list" d="M299.093 581.973v97.28h605.867v-97.28h-605.867zM299.093 399.36v97.28h605.867v-97.28h-605.867zM299.093 216.747v97.28h605.867v-97.28h-605.867zM167.68 581.547c-13.653 0-25.173 4.693-34.56 14.080s-13.653 20.907-13.653 34.56 4.693 25.173 13.653 34.56c9.387 9.387 20.48 14.080 34.56 14.080s25.173-4.693 34.56-14.080c9.387-9.387 14.080-20.907 14.080-34.56s-4.693-25.173-14.080-34.56c-9.387-9.387-20.907-14.080-34.56-14.080zM167.68 398.933c-13.653 0-25.173 4.693-34.56 14.080s-13.653 20.907-13.653 34.56 4.693 25.173 13.653 34.56c9.387 9.387 20.48 13.653 34.56 13.653s25.173-4.693 34.56-13.653c9.387-9.387 14.080-20.48 14.080-34.56 0-13.653-4.693-25.173-14.080-34.56s-20.907-14.080-34.56-14.080zM167.68 216.747c-13.653 0-25.173 4.693-34.56 14.080s-13.653 20.907-13.653 34.56 4.693 25.173 13.653 34.56c9.387 9.387 20.48 14.080 34.56 14.080s25.173-4.693 34.56-14.080c9.387-9.387 14.080-20.907 14.080-34.56s-4.693-25.173-14.080-34.56c-9.387-9.387-20.907-14.080-34.56-14.080z" />
<glyph unicode="&#xe918;" glyph-name="locked" d="M258.987 13.227c-26.88 0-49.493 9.387-68.693 28.587s-28.587 41.813-28.587 68.693v420.693c0 26.88 9.387 49.493 28.587 68.693s41.813 28.587 68.693 28.587h35.84v78.080c0 60.587 21.333 111.787 63.573 154.453 42.24 42.24 93.44 63.573 153.6 63.573s111.36-21.333 153.6-63.573c42.24-42.24 63.573-93.867 63.573-154.453v-78.080h35.84c26.88 0 49.493-9.387 68.693-28.587s28.587-41.813 28.587-68.693v-420.693c0-26.88-9.387-49.493-28.587-68.693s-41.813-28.587-68.693-28.587c0 0-506.027 0-506.027 0zM258.987 110.507h506.027v420.693h-506.027v-420.693zM512 235.52c23.467 0 43.52 8.533 60.16 25.173s25.173 36.693 25.173 60.16-8.533 43.52-25.173 60.16c-16.64 16.64-36.693 25.173-60.16 25.173s-43.52-8.533-60.16-25.173c-16.64-16.64-25.173-36.693-25.173-60.16s8.533-43.52 25.173-60.16c16.64-16.64 36.693-25.173 60.16-25.173zM392.107 628.053h240.213v78.080c0 33.707-11.52 62.293-34.987 85.76s-51.627 35.413-85.333 35.413-61.867-11.947-85.333-35.413c-23.467-23.467-34.987-52.053-34.987-85.76 0 0 0-78.080 0-78.080zM258.987 110.507v0z" />
<glyph unicode="&#xe919;" glyph-name="logo--instagram" d="M763.059 652.979c0-25.449-20.631-46.080-46.080-46.080s-46.080 20.631-46.080 46.080c0 25.449 20.631 46.080 46.080 46.080s46.080-20.631 46.080-46.080zM512 645.19c-108.905 0-197.19-88.285-197.19-197.19s88.285-197.19 197.19-197.19c108.905 0 197.19 88.285 197.19 197.19v0c0 108.905-88.285 197.19-197.19 197.19v0zM512 320c-70.692 0-128 57.308-128 128s57.308 128 128 128c70.692 0 128-57.308 128-128v0c0-70.692-57.308-128-128-128v0zM512 762.81c102.531 0 114.678-0.39 155.168-2.24 25.684-0.315 50.147-5.137 72.767-13.708l-1.461 0.486c33.585-13.207 59.67-39.292 72.577-72.015l0.3-0.862c8.085-21.158 12.907-45.622 13.221-71.171l0.001-0.135c1.846-40.49 2.24-52.637 2.24-155.168s-0.39-114.678-2.24-155.168c-0.315-25.684-5.137-50.147-13.708-72.767l0.486 1.461c-13.207-33.585-39.292-59.67-72.015-72.577l-0.862-0.3c-21.158-8.085-45.622-12.907-71.171-13.221l-0.135-0.001c-40.486-1.846-52.627-2.24-155.168-2.24s-114.682 0.39-155.168 2.24c-25.684 0.315-50.147 5.137-72.767 13.708l1.461-0.486c-33.585 13.207-59.67 39.292-72.577 72.015l-0.3 0.862c-8.085 21.158-12.907 45.622-13.221 71.171l-0.001 0.135c-1.846 40.49-2.24 52.637-2.24 155.168s0.39 114.678 2.24 155.168c0.315 25.684 5.137 50.147 13.708 72.767l-0.486-1.461c13.206 33.586 39.291 59.672 72.015 72.58l0.862 0.3c21.158 8.085 45.622 12.907 71.171 13.221l0.135 0.001c40.49 1.846 52.637 2.24 155.168 2.24zM512 832c-104.288 0-117.366-0.442-158.323-2.31-33.653-0.696-65.586-7.183-95.128-18.5l1.931 0.65c-51.74-20.391-91.929-60.58-111.856-110.99l-0.464-1.33c-10.668-27.616-17.156-59.555-17.845-92.918l-0.005-0.295c-1.869-40.941-2.31-54.019-2.31-158.307s0.442-117.366 2.31-158.323c0.694-33.658 7.182-65.597 18.5-95.144l-0.65 1.931c20.391-51.74 60.58-91.929 110.99-111.856l1.33-0.464c27.616-10.668 59.555-17.156 92.918-17.845l0.295-0.005c40.941-1.853 54.019-2.294 158.307-2.294s117.366 0.442 158.323 2.31c33.658 0.694 65.597 7.182 95.144 18.5l-1.931-0.65c51.74 20.391 91.929 60.58 111.856 110.99l0.464 1.33c10.668 27.616 17.155 59.555 17.845 92.918l0.005 0.295c1.853 40.941 2.294 54.019 2.294 158.307s-0.442 117.366-2.31 158.323c-0.696 33.653-7.183 65.586-18.5 95.128l0.65-1.931c-20.394 51.734-60.583 91.917-110.99 111.841l-1.33 0.463c-27.616 10.668-59.555 17.155-92.918 17.845l-0.295 0.005c-40.941 1.885-54.019 2.326-158.307 2.326z" />
<glyph unicode="&#xe91a;" glyph-name="logo--twitter" d="M715.52 768h108.48l-237.12-271.040 279.040-368.96h-218.24l-171.2 223.68-195.84-223.68h-108.48l253.76 289.92-267.84 350.080h224l154.56-204.48 178.88 204.48zM677.44 192.96h60.16l-388.16 513.6h-64.64l392.64-513.6z" />
<glyph unicode="&#xe91b;" glyph-name="logo--youtube" d="M941.12 663.68c-10.636 38.61-40.43 68.404-78.253 78.855l-0.787 0.185c-69.76 18.88-350.080 18.88-350.080 18.88s-280.32 0-350.080-18.88c-38.61-10.636-68.404-40.43-78.855-78.253l-0.185-0.787c-12.025-62.604-18.904-134.608-18.904-208.218 0-2.624 0.009-5.245 0.026-7.865l-0.002 0.403c-0.015-2.216-0.024-4.838-0.024-7.462 0-73.61 6.879-145.614 20.030-215.403l-1.126 7.185c10.636-38.61 40.43-68.404 78.253-78.855l0.787-0.185c69.76-18.88 350.080-18.88 350.080-18.88s280.32 0 350.080 18.88c38.61 10.636 68.404 40.43 78.855 78.253l0.185 0.787c12.025 62.604 18.904 134.608 18.904 208.218 0 2.624-0.009 5.245-0.026 7.865l0.002-0.403c0.015 2.216 0.024 4.838 0.024 7.462 0 73.61-6.879 145.614-20.030 215.403l1.126-7.185zM422.4 313.6v268.8l232.64-134.4z" />
<glyph unicode="&#xe91c;" glyph-name="menu" d="M119.467 179.627v97.28h785.493v-97.28s-785.493 0-785.493 0zM119.467 399.787v97.28h785.493v-97.28h-785.493zM119.467 619.947v97.28h785.493v-97.28h-785.493z" />
<glyph unicode="&#xe91d;" glyph-name="overflow-menu--vertical" d="M512 296.107l-264.107 264.107 67.84 67.84 196.267-196.267 196.267 196.267 67.84-67.84-264.107-264.107z" />
<glyph unicode="&#xe91e;" glyph-name="pause--filled" d="M593.067 133.973v628.053h194.133v-628.48s-194.133 0-194.133 0zM236.373 133.973v628.053h194.133v-628.48s-194.133 0-194.133 0z" />
<glyph unicode="&#xe91f;" glyph-name="phone" d="M850.347 55.467c-88.747 0-177.493 19.627-265.813 58.453-88.32 39.253-168.533 94.72-240.64 166.4-72.107 72.107-127.573 151.467-166.4 238.933s-58.027 176.213-58.027 266.667v54.613h270.933l43.093-226.133-128.853-125.013c14.933-26.027 31.147-50.773 49.493-74.24s37.973-45.227 59.307-65.707c19.627-19.627 40.96-38.4 64-55.893 23.040-17.92 47.36-34.133 73.387-49.493l130.133 129.28 223.147-46.933v-270.933s-54.613 0-54.613 0zM258.56 580.267l69.973 68.267-17.493 95.573h-93.013c3.413-30.72 8.107-59.733 14.933-86.613s15.36-52.48 25.6-76.8zM641.28 197.12c26.88-11.52 54.613-20.907 82.347-27.733s55.893-11.52 83.627-14.080v92.587l-95.147 19.627s-70.827-70.4-70.827-70.4z" />
<glyph unicode="&#xe920;" glyph-name="play--filled--alt" d="M332.8 133.973v628.053l494.080-314.027-494.080-314.027z" />
<glyph unicode="&#xe921;" glyph-name="logo--rss" d="M211.2 64c-24.32 0-44.8 8.533-61.867 25.6s-25.6 37.547-25.6 61.867 8.533 44.8 25.6 61.867c17.067 17.067 37.547 25.6 61.867 25.6s44.8-8.533 61.867-25.6c17.067-17.067 25.6-37.547 25.6-61.867s-8.533-44.8-25.6-61.867c-17.067-17.067-37.547-25.6-61.867-25.6zM721.493 64c0 82.347-15.787 160-46.933 232.107s-74.24 135.68-128.427 189.867-117.76 97.28-189.867 128.427-149.333 46.933-232.107 46.933v136.107c101.12 0 196.693-19.2 285.44-57.6 89.173-38.4 166.827-90.88 232.96-157.013s118.613-143.787 157.013-232.96c38.4-89.173 57.6-184.32 57.6-285.44h-135.68zM461.227 64c0 93.44-32.853 172.8-98.56 238.933-65.707 65.707-145.067 98.56-238.507 98.56v135.68c65.707 0 127.147-12.373 184.747-37.12 57.173-24.747 107.52-58.453 150.187-101.12s76.373-92.587 101.12-150.187c24.747-57.173 37.12-119.040 37.12-184.747h-136.107z" />
<glyph unicode="&#xe922;" glyph-name="search" d="M835.84 54.187l-270.507 270.507c-21.333-16.213-45.653-29.44-73.387-38.827-27.733-9.813-57.173-14.507-88.747-14.507-78.933 0-145.92 27.307-200.96 82.347s-82.347 122.027-82.347 200.96 27.307 145.92 82.347 200.96c55.040 55.040 122.027 82.347 200.96 82.347s145.92-27.307 200.96-82.347c55.040-55.040 82.347-122.027 82.347-200.96 0-31.573-4.693-61.013-14.507-88.747-9.813-27.307-22.613-51.627-38.827-72.533l270.933-270.933s-68.267-67.84-68.267-67.84zM403.2 368.213c51.627 0 95.573 17.92 131.84 54.187s54.187 80.213 54.187 131.84-17.92 95.573-54.187 131.84c-36.267 36.267-80.213 54.187-131.84 54.187s-95.573-17.92-131.84-54.187c-36.267-36.267-54.187-80.213-54.187-131.84s17.92-95.573 54.187-131.84c36.267-36.267 80.213-54.187 131.84-54.187z" />
<glyph unicode="&#xe923;" glyph-name="send" d="M119.893 98.56v698.88l828.587-349.44-828.587-349.44zM213.333 238.507l496.213 209.493-496.213 209.493v-141.653l259.84-67.84-259.84-67.84s0-141.653 0-141.653zM213.333 238.507v418.987s0-418.987 0-418.987z" />
<glyph unicode="&#xe924;" glyph-name="share" d="M768 13.227c-37.547 0-69.973 13.227-96.427 39.68s-39.68 58.453-39.68 96.427c0 5.12 0 10.667 1.28 15.787 0.853 5.547 1.707 10.667 3.413 15.36l-288.427 167.68c-12.8-11.52-26.88-20.053-42.667-26.453s-32.427-9.387-49.493-9.387c-37.547 0-69.973 13.227-96.427 39.68s-39.68 58.453-39.68 96.427c0 37.547 13.227 69.973 39.68 96.427s58.453 39.68 96.427 39.68c17.067 0 33.707-2.987 49.493-9.387s29.867-15.36 42.667-26.453l288.427 167.68c-1.28 4.693-2.56 9.813-3.413 15.36s-1.28 10.667-1.28 15.787c0 37.547 13.227 69.973 39.68 96.427s58.453 39.68 96.427 39.68c37.547 0 69.973-13.227 96.427-39.68s39.68-58.453 39.68-96.427c0-37.547-13.227-69.973-39.68-96.427s-58.453-39.68-96.427-39.68c-17.067 0-33.707 2.987-49.493 9.387s-29.867 14.933-42.667 26.453l-288.427-167.253c1.28-4.693 2.56-9.813 3.413-15.36s1.28-10.667 1.28-15.787 0-10.667-1.28-15.787c-0.853-5.547-1.707-10.667-3.413-15.36l288.427-167.253c12.8 11.52 26.88 20.053 42.667 26.453s32.427 9.387 49.493 9.387c37.547 0 69.973-13.227 96.427-39.68s39.68-58.453 39.68-96.427c0-37.547-13.227-69.973-39.68-96.427s-58.453-39.68-96.427-39.68zM768 704c11.947 0 22.187 4.267 30.293 12.373s12.373 18.347 12.373 30.293-4.267 22.187-12.373 30.293-18.347 12.373-30.293 12.373-22.187-4.267-30.293-12.373-12.373-18.347-12.373-30.293 4.267-22.187 12.373-30.293 18.347-12.373 30.293-12.373zM256 405.333c11.947 0 22.187 4.267 30.293 12.373s12.373 18.347 12.373 30.293-4.267 22.187-12.373 30.293c-8.107 8.107-18.347 12.373-30.293 12.373s-22.187-4.267-30.293-12.373c-8.107-8.107-12.373-18.347-12.373-30.293s4.267-22.187 12.373-30.293 18.347-12.373 30.293-12.373zM768 106.667c11.947 0 22.187 4.267 30.293 12.373s12.373 18.347 12.373 30.293-4.267 22.187-12.373 30.293-18.347 12.373-30.293 12.373-22.187-4.267-30.293-12.373-12.373-18.347-12.373-30.293 4.267-22.187 12.373-30.293 18.347-12.373 30.293-12.373z" />
<glyph unicode="&#xe925;" glyph-name="skip--back" d="M864 64c-0.066 0-0.143-0.001-0.221-0.001-5.802 0-11.242 1.544-15.934 4.243l0.155-0.082-608 352c-9.757 5.606-16.222 15.968-16.222 27.84s6.465 22.234 16.067 27.758l0.155 0.082 608 352c4.59 2.695 10.109 4.287 16 4.287s11.41-1.592 16.151-4.369l-0.151 0.082c9.633-5.636 16-15.931 16-27.713 0-0.045 0-0.089 0-0.134v0.007-704c0-17.673-14.327-32-32-32v0zM320 448l512-296.64v593.28zM64 832h64v-768h-64v768z" />
<glyph unicode="&#xe926;" glyph-name="skip--forward" d="M160 64c-17.673 0-32 14.327-32 32v0 704c0 0.038 0 0.082 0 0.127 0 11.782 6.368 22.077 15.849 27.631l0.151 0.082c4.59 2.695 10.109 4.287 16 4.287s11.41-1.592 16.151-4.369l-0.151 0.082 608-352c9.757-5.606 16.222-15.968 16.222-27.84s-6.465-22.234-16.067-27.758l-0.155-0.082-608-352c-4.537-2.617-9.977-4.161-15.779-4.161-0.078 0-0.155 0-0.233 0.001h0.012zM192 744.64v-593.28l512 296.64zM896 832h64v-768h-64v768z" />
<glyph unicode="&#xe927;" glyph-name="sort--ascending" d="M119.467 174.933v98.133h268.8v-98.133h-268.8zM119.467 401.067v98.133h529.067v-98.133h-529.067zM119.467 622.933v98.133h785.067v-98.133s-785.067 0-785.067 0z" />
<glyph unicode="&#xe928;" glyph-name="tag--group" d="M384 512c0-35.346-28.654-64-64-64s-64 28.654-64 64c0 35.346 28.654 64 64 64s64-28.654 64-64zM512 0c-0.055 0-0.12-0.001-0.185-0.001-8.791 0-16.753 3.545-22.537 9.283l-342.398 342.718c-11.6 11.533-18.803 27.478-18.88 45.105v242.895c0 35.346 28.654 64 64 64v0h242.88c17.642-0.077 33.587-7.28 45.117-18.877l342.723-342.403c5.846-5.8 9.466-13.837 9.466-22.72s-3.619-16.92-9.463-22.718l-288.002-288.002c-5.782-5.736-13.744-9.281-22.535-9.281-0.065 0-0.13 0-0.195 0.001h0.010zM192 640v-242.88l320-320 242.88 242.88-320 320zM886.72 534.72l-342.72 342.4c-11.533 11.6-27.478 18.803-45.105 18.88h-242.895c-35.346 0-64-28.654-64-64v0-64h64v64h242.88l320-320-41.6-41.28 45.44-45.44 64 64c5.846 5.8 9.466 13.837 9.466 22.72s-3.619 16.92-9.463 22.718l-0.002 0.002z" />
<glyph unicode="&#xe929;" glyph-name="thumbs-up" d="M290.56 49.067v564.48l295.253 294.827 88.32-84.48-55.040-210.347h369.067v-184.747l-160.853-379.307h-536.747zM384 146.347h377.6l128.427 300.373v69.973h-390.827l54.613 222.293-170.24-170.24s0-422.4 0-422.4zM384 568.747v0zM290.56 613.547v-97.28h-119.893v-370.347h119.893v-97.28h-216.747v564.48h217.173z" />
<glyph unicode="&#xe92a;" glyph-name="time" d="M648.96 245.76l65.707 65.28-156.16 156.16v192.853h-93.013v-230.4l183.467-183.467zM512 12.373c-60.587 0-116.907 11.52-169.813 34.133s-98.987 53.76-138.24 93.013c-39.253 39.253-69.973 85.333-93.013 138.24s-34.133 109.653-34.133 169.813 11.52 116.907 34.133 169.813 53.76 98.987 93.013 138.24c39.253 39.253 85.333 69.973 138.24 93.013s109.653 34.133 169.813 34.133c60.587 0 116.907-11.52 169.813-34.133s98.987-53.76 138.24-93.013 69.973-85.333 93.013-138.24c23.040-52.907 34.133-109.653 34.133-169.813 0-60.587-11.52-116.907-34.133-169.813s-53.76-98.987-93.013-138.24c-39.253-39.253-85.333-69.973-138.24-93.013s-109.653-34.133-169.813-34.133zM512 109.653c93.867 0 173.653 32.853 239.36 98.56s98.987 145.493 98.987 239.36c0 93.867-32.853 173.653-98.987 239.36-65.707 65.707-145.493 98.56-239.36 98.56s-173.653-32.853-239.36-98.56c-65.707-65.707-98.987-145.493-98.987-239.36s32.853-173.653 98.987-239.36c65.707-65.707 145.493-98.56 239.36-98.56z" />
<glyph unicode="&#xe92b;" glyph-name="tree-view--alt" d="M736 671.843h192c35.346 0 64 28.654 64 64v0 128c0 35.346-28.654 64-64 64v0h-192c-35.346 0-64-28.654-64-64v0-32h-320v32c0 35.346-28.654 64-64 64v0h-192c-35.346 0-64-28.654-64-64v0-128c0-35.346 28.654-64 64-64v0h192c35.346 0 64 28.654 64 64v0 32h128v-640c0.042-35.329 28.671-63.958 63.996-64h128.004v-32c0-35.346 28.654-64 64-64v0h192c35.346 0 64 28.654 64 64v0 128c0 35.346-28.654 64-64 64v0h-192c-35.346 0-64-28.654-64-64v0-32h-128v288h128v-32c0-35.346 28.654-64 64-64v0h192c35.346 0 64 28.654 64 64v0 128c0 35.346-28.654 64-64 64v0h-192c-35.346 0-64-28.654-64-64v0-32h-128v288h128v-32c0-35.346 28.654-64 64-64v0zM736 863.843h192v-128h-192zM288 735.843h-192v128h192zM736 159.843h192v-128h-192zM736 511.843h192v-128h-192z" />
<glyph unicode="&#xe92c;" glyph-name="user--avatar" d="M250.88 234.24c36.267 27.307 76.8 49.067 121.173 64.427 44.373 15.787 91.307 23.467 139.947 23.467s95.573-8.107 140.373-23.893c44.8-15.787 84.907-37.547 120.747-64.427 24.32 29.44 43.52 61.867 56.747 98.133 13.653 35.84 20.48 74.667 20.48 116.053 0 93.44-32.853 173.227-98.987 239.36s-145.92 98.987-239.36 98.987c-93.44 0-173.227-32.853-239.36-98.987s-98.987-145.92-98.987-239.36c0-40.96 6.827-79.787 20.053-115.627s32.427-68.693 57.173-98.133zM512 403.2c-42.667 0-78.507 14.507-107.52 43.52s-43.52 64.853-43.52 107.52 14.507 78.507 43.52 107.52c29.013 29.013 64.853 43.52 107.52 43.52s78.507-14.507 107.52-43.52c29.013-29.013 43.52-64.853 43.52-107.52s-14.507-78.507-43.52-107.52c-29.013-29.013-64.853-43.52-107.52-43.52zM512 12.8c-60.16 0-116.907 11.52-169.813 34.133s-98.987 53.76-138.24 93.013c-39.253 39.253-70.4 85.333-93.013 138.24s-34.133 109.653-34.133 169.813 11.52 116.907 34.133 169.813c22.613 52.907 53.76 98.987 93.013 138.24s85.333 70.4 138.24 93.013 109.653 34.133 169.813 34.133c60.16 0 116.907-11.52 169.813-34.133s98.987-53.76 138.24-93.013c39.253-39.253 70.4-85.333 93.013-138.24s34.133-109.653 34.133-169.813c0-60.16-11.52-116.907-34.133-169.813s-53.76-98.987-93.013-138.24c-39.253-39.253-85.333-70.4-138.24-93.013s-109.653-34.133-169.813-34.133zM512 110.080c36.693 0 71.253 5.12 103.68 15.787s62.293 26.027 90.027 45.653c-28.16 20.053-58.027 35.413-90.027 46.080s-66.56 15.787-104.107 15.787-72.107-5.12-103.68-15.787c-32-10.667-61.867-26.027-90.027-46.080 27.733-20.053 57.6-35.413 90.027-45.653 32.427-10.667 66.987-15.787 103.68-15.787zM512 492.373c17.92 0 32.427 5.973 44.373 17.493 11.947 11.947 17.493 26.453 17.493 44.373s-5.973 32.427-17.493 44.373c-11.947 11.947-26.453 17.92-44.373 17.92s-32.427-5.973-44.373-17.92c-11.947-11.947-17.493-26.453-17.493-44.373s5.973-32.427 17.493-44.373c11.947-11.947 26.453-17.493 44.373-17.493z" />
<glyph unicode="&#xe92d;" glyph-name="view" d="M512 277.333c53.333 0 98.56 18.773 136.107 55.893s55.893 82.773 55.893 136.107-18.773 98.56-55.893 136.107-82.773 55.893-136.107 55.893-98.56-18.773-136.107-55.893-55.893-82.773-55.893-136.107 18.773-98.56 55.893-136.107 82.773-55.893 136.107-55.893zM512 359.68c-30.293 0-56.32 10.667-77.653 32s-32 47.36-32 77.653 10.667 56.32 32 77.653c21.333 21.333 47.36 32 77.653 32s56.32-10.667 77.653-32c21.333-21.333 32-47.36 32-77.653s-10.667-56.32-32-77.653c-21.333-21.333-47.36-32-77.653-32zM512 141.227c-105.813 0-202.24 29.867-288.853 89.6s-149.333 139.093-188.587 238.507c39.253 99.413 101.973 178.773 188.587 238.507s183.040 89.6 288.853 89.6 202.24-29.867 288.853-89.6c86.613-59.733 149.333-139.093 188.587-238.507-39.253-99.413-101.973-178.773-188.587-238.507s-183.040-89.6-288.853-89.6zM512 234.667c80.213 0 153.6 21.333 221.013 63.573s118.187 99.413 154.027 171.093c-35.413 71.68-87.040 128.853-154.027 171.093s-140.8 63.573-221.013 63.573-153.6-21.333-221.013-63.573c-66.987-42.24-118.187-99.413-154.027-171.093 35.413-71.68 87.040-128.853 154.027-171.093s140.8-63.573 221.013-63.573z" />
<glyph unicode="&#xe92e;" glyph-name="view--off" d="M688.64 396.8l-72.96 72.96c5.12 27.307-2.56 52.907-23.893 77.227-20.907 23.893-48.213 33.28-81.493 28.16l-70.827 70.827c11.52 5.12 23.467 8.96 34.987 11.52s24.32 3.84 37.12 3.84c53.333 0 98.56-18.773 136.107-55.893s55.893-82.773 55.893-136.107c0-12.8-1.28-25.173-3.84-37.12s-6.4-23.893-11.52-34.987zM831.573 255.147l-66.987 65.28c26.027 20.48 49.067 42.24 69.12 66.133s37.973 51.2 53.333 82.347c-35.84 71.68-87.040 128.853-153.173 171.093s-139.947 63.573-221.867 63.573c-20.48 0-40.533-1.28-59.307-3.84s-37.547-6.4-55.467-11.947l-72.96 72.96c29.013 11.947 59.307 21.333 90.453 27.307s63.573 8.96 96.853 8.96c108.373 0 205.227-30.293 290.56-90.453s147.627-139.52 186.453-237.653c-16.213-42.24-37.973-81.92-64.853-118.187-26.88-36.693-58.027-68.693-92.587-95.573zM841.813-7.253l-174.507 172.8c-24.747-8.107-49.493-14.080-75.093-17.92s-52.053-5.973-79.787-5.973c-108.373 0-205.653 30.293-290.987 90.453-85.333 60.587-147.627 139.52-186.453 237.227 14.933 37.547 33.707 72.533 56.32 105.387 23.040 32.853 48.64 62.72 77.653 88.747l-116.48 117.76 62.72 62.72 788.907-789.333s-62.293-62.293-62.293-62.293zM234.667 598.613c-20.48-18.773-38.4-38.827-54.613-59.733s-30.293-44.373-42.667-69.547c35.413-71.68 86.613-128.853 152.747-171.093s140.373-63.573 221.867-63.573c12.8 0 25.6 0.853 37.973 2.133 12.8 1.707 26.027 3.413 40.533 5.547l-38.4 40.533c-6.827-2.133-13.653-3.413-20.053-4.267s-13.227-1.28-20.053-1.28c-53.333 0-98.56 18.773-136.107 55.893s-55.893 82.773-55.893 136.107c0 6.827 0 13.653 1.28 20.053s2.133 13.227 3.84 20.053c0 0-90.453 89.173-90.453 89.173z" />
<glyph unicode="&#xe92f;" glyph-name="warning" d="M35.413 59.733l476.587 823.467 476.587-823.467h-953.173zM196.267 152.747h631.467l-315.733 544s-315.733-544-315.733-544zM512 192.853c12.373 0 22.613 4.267 31.147 12.8s12.8 18.773 12.8 31.147-4.267 22.613-12.8 31.147c-8.533 8.533-18.773 12.8-31.147 12.8s-22.613-4.267-31.147-12.8c-8.533-8.533-12.8-18.773-12.8-31.147s4.267-22.613 12.8-31.147c8.533-8.533 18.773-12.8 31.147-12.8zM469.333 320h85.333v210.347h-85.333v-210.347z" />
<glyph unicode="&#xe930;" glyph-name="logo--facebook" d="M571.84 68.8v0 268.48h89.6l16.96 111.040h-106.56v72c-2.56 30.72 20.16 57.92 50.88 60.48 3.84 0.32 8 0 12.16 0h48v93.76c-28.16 5.12-56.96 7.68-85.76 8.32-90.56 0-144.64-56-144.64-149.76v-84.8h-98.24v-111.040h98.24v-268.48c-209.6 32.96-352.64 229.44-319.68 439.040 29.44 186.56 190.080 324.16 379.2 324.16 6.72 0 13.44 0 20.16-0.64 211.84-11.2 374.4-191.68 363.52-403.52-9.6-181.12-144.32-330.88-323.52-359.36v0z" />
<glyph unicode="&#xe931;" glyph-name="play" d="M332.8 133.973v628.053l494.080-314.027-494.080-314.027z" />
<glyph unicode="&#xe932;" glyph-name="notification" d="M162.133 140.8v97.28h82.347v290.133c0 61.44 18.347 116.053 54.613 163.84 36.693 47.787 84.053 79.36 142.933 94.293v96.853h139.947v-97.707c59.307-14.933 106.667-46.080 143.36-93.867 36.267-47.787 54.613-102.4 54.613-163.84v-290.133h82.347v-97.28s-700.16 0-700.16 0zM512.427 9.813c-24.32 0-45.227 8.533-62.293 26.027-17.493 17.067-26.027 37.973-26.027 62.293h176.64c0-24.32-8.533-45.227-26.027-62.293-17.067-17.067-37.973-26.027-62.293-26.027zM341.333 237.653h341.333v290.133c0 46.933-16.64 87.040-50.347 120.747s-73.813 50.347-120.747 50.347-87.040-16.64-120.747-50.347-50.347-73.813-50.347-120.747v-290.133z" />
<glyph unicode="&#xe933;" glyph-name="rotate--counterclockwise--alt" d="M597.333 55.467l-69.12 69.12 148.053 147.2h-471.467v526.080h97.28v-429.653h374.613l-148.053 148.053 68.267 69.12 265.387-265.387-264.533-264.533z" />
<glyph unicode="&#xe934;" glyph-name="keyboard" d="M73.813 137.813v620.8h876.8v-620.8h-876.8zM170.667 234.667h682.667v426.667h-682.667v-426.667zM341.333 277.333h341.333v85.333h-341.333v-85.333zM213.333 405.333h85.333v85.333h-85.333v-85.333zM341.333 405.333h85.333v85.333h-85.333v-85.333zM469.333 405.333h85.333v85.333h-85.333v-85.333zM597.333 405.333h85.333v85.333h-85.333v-85.333zM725.333 405.333h85.333v85.333h-85.333v-85.333zM213.333 533.333h85.333v85.333h-85.333v-85.333zM341.333 533.333h85.333v85.333h-85.333v-85.333zM469.333 533.333h85.333v85.333h-85.333v-85.333zM597.333 533.333h85.333v85.333h-85.333v-85.333zM725.333 533.333h85.333v85.333h-85.333v-85.333zM170.667 234.667v0z" />
<glyph unicode="&#xe935;" glyph-name="download" d="M512 280.32l-225.707 225.707 68.267 69.973 108.8-109.227v331.093h97.28v-331.52l108.8 109.227 68.267-69.973-225.707-225.707zM162.133 98.133v225.28h97.28v-128h506.027v128h97.28v-225.28h-700.587z" />
<glyph unicode="&#xe936;" glyph-name="cut-icon" d="M808.107 60.16l-296.96 296.96-97.28-97.28c5.12-10.667 8.96-21.76 10.667-33.28 2.133-11.52 2.987-23.467 2.987-34.987 0-47.787-17.067-88.32-50.773-122.027s-74.667-50.773-122.027-50.773-88.32 17.067-122.027 50.773c-33.707 33.707-50.347 74.24-50.347 122.027s16.64 88.32 50.347 122.027c33.707 33.707 74.24 50.773 122.027 50.773 11.52 0 23.467-0.853 34.987-2.987s22.613-5.547 33.28-10.667l97.28 97.28-97.28 97.28c-10.667-5.12-21.76-8.96-33.28-10.667-11.52-2.133-23.467-2.987-34.987-2.987-47.787 0-88.32 17.067-122.027 50.773s-50.347 74.24-50.347 122.027 16.64 88.32 50.347 122.027c33.707 33.707 74.24 50.773 122.027 50.773s88.32-17.067 122.027-50.773c33.707-33.707 50.773-74.24 50.773-122.027 0-11.52-0.853-23.467-2.987-34.987s-5.547-22.613-10.667-33.28l527.787-527.787v-48.213s-133.547 0-133.547 0zM644.693 490.667l-90.88 90.88 254.293 254.293h133.547v-48.213l-296.96-296.96zM255.147 620.8c23.040 0 42.667 8.107 58.88 24.32s24.747 35.84 24.747 58.88-8.107 42.667-24.747 58.88c-16.213 16.213-35.84 24.32-58.88 24.32s-42.667-8.107-58.88-24.32c-16.213-16.213-24.32-35.84-24.32-58.88s8.107-42.667 24.32-58.88c16.213-16.213 35.84-24.32 58.88-24.32zM511.147 420.693c7.253 0 13.653 2.56 19.2 8.107s8.107 11.947 8.107 19.2-2.56 13.653-8.107 19.2c-5.547 5.547-11.947 8.107-19.2 8.107s-13.653-2.56-19.2-8.107c-5.547-5.547-8.107-11.947-8.107-19.2s2.56-13.653 8.107-19.2c5.547-5.547 11.947-8.107 19.2-8.107zM255.147 108.8c23.040 0 42.667 8.107 58.88 24.32s24.747 35.84 24.747 58.88-8.107 42.667-24.747 58.88c-16.213 16.213-35.84 24.32-58.88 24.32s-42.667-8.107-58.88-24.32c-16.213-16.213-24.32-35.84-24.32-58.88s8.107-42.667 24.32-58.88c16.213-16.213 35.84-24.32 58.88-24.32z" />
<glyph unicode="&#xe937;" glyph-name="calendar" d="M119.467 12.8v785.067h136.533v85.333h91.307v-85.333h329.813v85.333h91.307v-85.333h136.533v-785.493s-785.493 0-785.493 0zM216.32 109.653h591.36v423.68h-591.36v-423.68zM216.32 618.667h591.36v82.347h-591.36v-82.347zM216.32 618.667v0z" />
<glyph unicode="&#xe938;" glyph-name="logo--pinterest" d="M512 896c-247.36-1.6-446.72-203.52-444.8-451.2 1.28-182.080 112.64-345.28 281.6-412.8-6.4 42.56-6.4 85.44 0 128l52.8 224c-8.32 20.16-12.48 41.92-12.16 64 0 62.080 36.16 108.8 80.96 108.8 31.040 0.32 56.64-24.32 57.28-55.36 0-2.88 0-5.76-0.64-8.64 0-38.4-24.32-96-37.12-149.12-9.6-33.92 10.56-69.44 44.48-78.72 7.040-1.92 14.72-2.88 22.080-2.24 79.36 0 140.8 84.16 140.8 205.12 3.2 97.6-73.6 179.52-171.2 182.72-5.44 0-10.88 0-16 0-106.88 4.48-197.44-78.4-201.92-185.28 0-3.2 0-6.080 0-9.28-0.32-36.48 10.88-72.32 32-102.080 3.2-3.52 4.48-8.32 3.2-12.8-3.52-14.080-11.2-44.8-12.48-50.88s-6.72-9.92-15.040-6.080c-56 26.24-90.88 107.84-90.88 173.76 0 141.12 102.72 271.040 296 271.040 155.2 0 276.16-110.72 276.16-258.88s-96-278.4-232.64-278.4c-40.64-1.28-79.36 17.92-102.72 51.2l-27.84-106.56c-13.44-41.28-32-80.96-55.68-117.44 43.52-12.8 88.64-19.2 134.080-18.56 247.36 0 448 200.64 448 448s-200.96 447.68-448.32 447.68z" />
<glyph unicode="&#xe939;" glyph-name="good" d="M459.093 23.040c-25.6 2.56-50.347 12.373-70.4 28.587l-110.507 87.893c-48.64 32.427-77.653 87.040-77.653 145.493v19.2c-43.947 9.387-71.68 52.48-62.293 96.427 6.827 31.147 30.72 55.467 61.867 62.293-8.533 58.453-32 142.507-60.587 153.173-6.827 2.56-11.52 8.96-11.093 16.64 2.133 22.613 17.92 41.813 39.68 48.213 21.76 9.387 46.080 11.093 69.12 5.12 73.387 142.507 285.013 186.88 294.4 189.013 6.827 1.28 13.653-1.28 17.92-6.827s4.693-12.8 1.28-18.773c-6.827-13.653-11.093-28.587-12.373-43.947 75.52 17.493 153.173 22.613 230.4 15.36 7.68-0.427 14.080-5.973 16.213-13.227 1.707-7.253-1.707-14.933-8.107-18.773-11.093-6.827-20.48-15.787-27.733-26.453 71.253-3.84 99.84-55.467 123.307-97.707 7.253-12.373 13.653-24.747 21.333-34.987 3.84-5.547 4.267-12.8 0.853-18.347-3.413-5.973-9.813-9.387-16.64-8.96-24.747 2.133-49.493 0-73.813-5.12l-26.453-133.547c43.52-9.387 71.253-52.48 61.44-96-6.827-31.573-31.573-55.467-63.147-61.867v-19.2c0-58.453-29.44-112.64-77.653-145.493l-110.507-87.893c-20.053-16.213-44.8-26.027-70.4-28.587-9.387-0.853-19.2-1.707-28.587-1.707s-19.2 0.427-28.587 1.707zM251.307 620.8c-10.24-52.907-15.36-106.24-15.36-160v-176.213c0-46.933 23.893-90.88 63.147-116.907 0.427 0 0.853-0.427 1.28-0.853l110.933-88.32c14.933-11.947 32.853-19.2 51.627-21.333 16.64-1.28 33.28-1.28 49.92 0 18.773 2.133 36.693 9.387 51.627 21.333l110.933 88.32s0.853 0.427 1.28 0.853c39.253 26.027 62.72 69.973 63.147 116.907v166.4l-56.747 111.36c-39.253-3.84-78.507 2.56-114.347 18.773-40.107 14.507-83.627 17.067-125.013 7.253-60.587-15.787-124.587-3.84-175.36 32.427-4.267 2.987-8.96 5.973-13.227 9.387-0.853-2.987-2.133-6.4-2.56-9.813zM774.827 340.053c23.893 8.96 35.84 35.413 26.88 59.307-4.693 12.373-14.507 22.187-26.88 26.88v-86.187zM170.667 383.147c0-19.2 11.947-36.267 29.867-43.093v86.187c-17.92-6.827-29.867-23.893-29.867-43.093v0zM749.653 580.267c-3.413-1.28-6.827-2.56-10.24-3.84-6.827-2.133-14.080-4.693-21.333-6.827l21.333-40.96 10.24-20.053 14.933 76.373c-5.12-1.707-10.24-2.987-14.933-5.12v0zM182.187 648.533c-5.547-2.133-10.24-5.12-14.507-8.96 14.080-12.373 25.6-27.733 32.853-45.227 2.56-5.547 5.12-11.52 7.253-17.067 2.987 25.6 8.107 51.2 15.36 75.947-3.84 0.853-8.107 1.28-11.947 1.28h-1.707c-9.387 0-19.2-2.133-27.733-5.973v0zM559.36 620.8c7.253-2.133 14.933-4.693 22.187-7.68 29.867-13.653 62.72-19.2 95.573-16.64 7.253 0.853 14.507 2.133 21.76 3.84 13.227 2.987 25.6 7.68 39.253 12.373h1.28c11.093 4.267 23.040 8.533 35.413 11.947h0.427c5.973 1.707 11.947 3.413 18.347 4.693 17.493 3.84 34.987 5.973 52.907 6.827-2.133 3.413-3.84 7.253-5.973 10.667-24.747 44.8-46.080 83.627-109.227 79.787-7.68-0.853-14.933 3.84-17.92 11.093-5.973 17.067-2.133 36.693 10.24 49.92-72.533 2.133-165.12-2.133-189.867-24.32-5.12-4.267-11.52-5.547-17.92-3.413-5.973 1.707-10.667 7.253-11.947 13.653-2.987 19.627-2.133 39.253 2.56 58.453-61.013-17.92-192-66.987-240.213-166.4 4.267-3.413 8.107-6.827 12.373-9.813 20.48-16.64 44.8-28.587 70.4-34.56 24.747-4.693 49.92-4.693 74.667 0 4.267 0.427 8.96 1.28 13.227 1.707 20.907 3.84 41.813 5.973 63.147 5.973 19.627 0 39.253-2.133 58.453-7.68v0zM375.467 195.84c-2.133 5.12-1.707 11.52 1.707 16.213s8.96 7.68 14.933 7.68h192c5.973 0 11.52-2.56 14.933-7.68 3.413-4.693 3.84-11.093 1.707-16.213-32.427-62.293-108.8-86.613-171.093-54.187-23.040 11.947-42.24 30.72-54.187 54.187v0zM488.107 162.133c22.613-0.853 44.8 7.68 61.867 23.040h-123.733c16.64-15.36 38.827-23.467 61.867-23.040v0zM451.413 270.933c-8.533 3.84-12.373 14.080-8.107 22.613 0 0 0 0 0 0 4.267 8.533 14.507 12.373 23.467 8.533 6.4-2.56 13.653-3.84 20.907-3.84 7.68 0 15.787 1.28 23.040 3.84 8.96 3.413 19.2-0.427 23.040-9.387 3.84-8.533 0-18.773-8.96-22.613h-0.427c-11.52-4.693-24.32-7.253-36.693-6.827-12.373 0-24.747 2.133-36.267 6.827v0zM592.64 369.067v28.16c0.427 14.080 12.373 24.747 26.027 24.32 13.227-0.427 23.893-11.093 24.32-24.32v-28.16c-0.427-14.080-12.373-24.747-26.027-24.32-13.227 0.427-23.893 11.093-24.32 24.32zM332.8 369.067v28.16c0.427 14.080 12.373 24.747 26.027 24.32 13.227-0.427 23.893-11.093 24.32-24.32v-28.16c-0.427-14.080-12.373-24.747-26.027-24.32-13.227 0.427-23.893 11.093-24.32 24.32zM315.307 459.093c-0.853 9.387 5.973 17.92 15.36 18.773 0 0 0.427 0 0.853 0l78.933 6.827c9.813 0.853 17.92-6.4 19.2-16.213 0.853-9.813-6.4-17.92-16.213-18.773l-78.507-6.4s-1.28 0-1.707 0c-9.387 0-17.067 6.827-17.493 16.213v0zM641.707 443.307l-78.933 6.4c-9.387 0.853-16.64 8.96-16.213 18.773 0 0 0 0 0 0 0.853 9.813 9.387 16.64 19.2 16.213l78.507-6.4c9.387-0.853 16.64-9.387 15.787-18.773-0.853-8.96-8.107-15.787-17.493-15.787h-1.707z" />
<glyph unicode="&#xe93a;" glyph-name="hazardous" d="M360.107 22.613v57.173l-81.92 64.853c-48.213 32-77.653 86.187-77.653 144.213v19.2c-43.52 7.253-72.96 48.213-65.707 92.16 5.547 33.707 32 59.733 65.28 65.28-8.533 58.027-32 141.653-60.587 151.893-6.827 2.56-11.52 8.96-11.52 16.213 2.133 22.613 17.92 41.387 39.68 47.787 21.76 9.387 46.080 11.093 69.12 4.693 73.387 141.227 285.44 186.027 294.827 187.733 6.827 1.28 13.653-1.28 17.92-6.827 4.267-5.12 4.693-12.8 1.28-18.773-6.827-13.653-11.093-28.587-12.373-43.947 75.52 17.067 153.173 22.187 230.4 14.933 7.68-0.427 13.653-5.547 15.787-12.8 1.707-7.253-1.28-14.933-8.107-18.773-11.093-6.827-20.48-15.787-27.733-26.453 71.253-3.84 99.84-55.040 123.307-97.28 7.253-12.373 13.653-24.32 20.907-34.987 3.84-5.547 4.267-12.8 0.853-18.347-3.413-5.973-9.813-9.387-16.64-8.533-24.747 1.707-49.92 0-74.24-5.12l-26.453-132.693c43.093-8.96 70.827-51.627 61.867-94.72-6.827-31.573-31.573-56.32-63.573-62.293v-19.2c0-58.027-29.44-112.213-77.653-144.213l-81.92-64.853v-57.173c0-47.787-57.173-87.040-127.573-87.040s-127.573 38.4-127.573 86.613zM414.72 81.92c-9.387-7.253-17.067-16.64-22.187-27.307-2.56-6.4-4.267-13.227-4.267-20.48 0-39.253 44.373-71.253 98.987-71.253s99.413 32 99.413 71.253c0 7.253-1.707 14.080-4.267 20.48-5.12 10.667-12.373 20.053-22.187 27.307-43.947 30.72-101.973 30.72-145.92 0v0zM724.48 435.2c10.24-59.733 0.853-121.6-27.733-175.36-19.2-44.373-50.347-82.773-89.6-110.933 4.267-7.68 6.4-16.213 7.253-24.747l60.587 47.787s0.853 0.427 1.28 0.853c39.253 25.6 62.72 69.12 63.147 116.053v165.12l-56.747 110.507c-39.253-3.84-78.507 2.56-114.347 18.773-40.107 14.507-83.627 17.067-125.013 7.253-60.587-15.787-124.587-3.84-175.36 32.427-4.267 2.987-8.96 5.973-13.227 9.813-0.853-2.987-1.28-6.4-2.133-9.813-10.24-52.48-15.36-105.387-15.787-158.72v-174.933c0-46.933 23.893-90.453 63.147-116.053 0.427 0 0.853-0.427 1.28-0.853l60.587-47.787c0.853 8.533 3.413 17.067 7.253 24.747-39.253 28.16-70.4 66.56-89.6 110.933-28.16 53.76-37.973 115.627-27.733 175.36 14.507 60.587 67.84 133.12 236.8 133.12s222.293-72.533 237.227-133.12zM584.533 175.787c35.84 24.32 63.573 58.453 80.213 98.56 25.173 46.507 34.133 100.693 25.6 152.747-17.493 70.827-85.333 106.667-202.667 106.667s-184.747-35.84-202.24-106.667c-8.533-52.48 0-106.24 25.6-152.747 16.64-40.107 44.373-74.24 80.213-98.56 58.027 40.533 135.253 40.533 193.28 0v0zM774.827 343.893c23.467 8.96 35.84 34.987 26.88 58.453-4.693 12.373-14.507 22.613-26.88 26.88v-85.76zM170.667 386.56c0-19.2 11.947-35.84 29.867-42.667v85.76c-17.92-6.827-29.44-23.893-29.867-42.667v0zM749.653 582.4c-3.413-1.28-6.827-2.56-10.24-3.84-7.253-2.133-14.080-4.693-21.333-6.827l21.333-40.96 10.24-20.053 14.933 75.947c-5.12-1.707-9.813-2.987-14.933-4.693v0zM181.76 650.24c-5.547-2.133-10.24-5.12-14.507-9.387 14.080-12.373 25.6-27.733 32.853-44.8 2.56-5.547 5.12-11.093 7.253-17.067 2.987 25.6 8.107 50.773 15.787 75.52-3.84 0.853-8.107 1.28-12.373 1.28h-1.707c-9.387 0-18.773-1.707-27.733-5.12v0zM558.933 622.507c7.253-2.133 14.507-4.693 22.187-7.68 29.867-13.653 62.72-19.2 95.573-16.213 7.253 0.853 14.507 2.133 21.333 3.84 13.227 2.987 26.027 7.68 39.253 12.373h1.28c11.093 4.267 22.613 8.533 35.413 11.947h0.427c5.973 1.707 11.947 3.413 18.347 4.693 17.493 3.84 34.987 6.4 52.907 6.827-2.133 3.84-3.84 7.253-5.973 10.667-24.747 44.373-46.507 83.2-109.653 78.933-7.68-0.427-14.933 3.84-17.493 11.093-5.973 17.067-2.133 36.267 10.24 49.493-72.533 2.56-164.693-2.133-189.867-23.893-4.693-4.267-11.52-5.547-17.493-3.84-5.973 2.133-10.24 7.253-11.52 13.653-3.413 19.2-2.56 39.253 2.56 58.027-61.013-17.92-192-66.56-240.213-165.12 4.267-3.413 8.533-6.827 12.373-9.813 20.907-16.64 44.8-28.16 70.827-34.56 24.747-4.693 49.92-4.693 74.667 0 4.267 0.427 8.533 1.28 13.227 1.707 20.907 3.413 41.813 5.547 62.72 5.973 20.053 0 39.68-2.133 58.88-7.68v0zM429.227 3.413h116.48c-35.413-23.893-81.493-23.893-116.48 0zM413.013 26.453c-0.853 4.693-0.853 9.813 0 14.507h149.333c0.853-4.693 0.853-9.813 0-14.507h-149.333zM517.973 63.573h-88.747c2.56 2.133 5.12 3.84 8.107 5.12 31.147 17.067 69.12 17.067 100.267 0 2.987-1.707 5.547-3.413 8.107-5.12h-27.733zM517.973 397.227c1.707 41.387 36.693 73.387 78.080 71.253 41.387-1.707 73.387-36.693 71.253-78.080-1.707-40.107-34.56-71.68-74.667-71.68-42.24 0.853-75.52 35.84-74.667 78.080v0zM553.387 397.227c2.133-21.76 21.76-37.12 43.093-34.987 21.76 2.133 37.12 21.76 34.987 43.093-2.133 20.053-19.2 34.987-39.253 34.987-22.613-1.28-40.107-20.48-39.253-43.52v0zM307.2 397.227c1.707 41.387 36.693 73.387 78.080 71.253 41.387-1.707 73.387-36.693 71.253-78.080-1.707-40.107-34.56-71.253-74.667-71.68-42.24 0.853-75.52 35.84-74.667 78.080v0zM343.040 397.227c2.133-21.76 21.76-37.12 43.093-34.987 21.76 2.133 37.12 21.76 34.987 43.093-2.133 20.053-19.2 34.987-39.253 34.987-22.613-1.28-40.533-20.48-39.253-43.52v0z" />
<glyph unicode="&#xe93b;" glyph-name="moderate" d="M458.667 23.040c-25.6 2.56-49.92 12.373-69.973 28.587l-110.507 87.893c-48.64 32.427-77.653 87.040-78.080 145.493v19.2c-43.947 8.96-72.107 51.627-63.147 95.573 6.4 31.573 31.147 56.32 62.72 62.72-8.533 58.88-32 142.507-60.587 153.6-6.827 2.56-11.52 8.96-11.093 16.213 2.133 22.613 17.493 41.813 39.68 48.213 21.76 9.387 46.080 11.093 69.12 4.693 73.387 142.507 285.44 187.307 294.4 189.013 6.827 1.28 13.653-1.28 17.92-6.827s4.693-12.8 1.28-18.773c-6.827-13.653-11.093-28.587-12.373-43.947 75.52 17.493 153.173 22.613 230.4 15.36 7.68-0.427 14.080-5.973 15.787-13.227s-1.28-14.933-8.107-18.773c-11.093-6.827-20.48-15.787-27.733-26.453 71.253-3.84 99.84-55.467 123.307-97.707 7.253-12.373 13.653-24.747 21.333-35.413 3.84-5.547 4.267-12.8 0.853-18.347s-9.813-8.96-16.64-8.533c-24.747 1.707-49.92 0-74.24-5.12l-26.453-133.547c43.52-10.24 70.827-53.76 60.587-97.28-7.253-30.72-31.573-54.613-62.293-61.013v-19.2c0-58.453-29.44-113.067-78.080-145.493l-110.507-87.893c-20.053-16.213-44.373-26.027-69.973-28.587-19.2-2.133-38.4-2.133-57.6 0v0zM251.733 620.8c-10.24-52.48-15.36-106.24-15.36-160v-176.213c0-46.933 23.893-90.88 63.147-116.907 0.427 0 0.853-0.427 1.28-0.853l110.933-88.32c14.507-11.947 32.427-19.2 51.2-21.333 16.64-1.707 33.28-1.707 50.347 0 18.773 2.133 36.693 9.387 51.2 21.333l110.933 88.32s0.853 0.853 1.28 0.853c39.253 26.027 62.72 69.973 63.147 116.907v166.4l-56.747 111.36c-39.253-3.84-78.507 2.56-114.773 18.773-40.107 14.933-83.627 17.493-125.013 7.253-60.587-15.787-124.587-3.84-175.36 32.427-4.267 3.413-8.533 6.4-13.227 9.813-0.427-3.413-1.28-6.4-1.707-9.813v0zM774.827 340.053c23.893 8.96 35.84 35.413 26.88 59.307-4.693 12.373-14.507 22.187-26.88 26.88v-86.187zM170.667 383.147c0-19.2 11.947-36.267 29.867-43.093v86.187c-17.92-6.827-29.867-23.893-29.867-43.093v0zM749.653 580.267c-3.413-1.28-7.253-2.56-10.667-3.84-6.827-2.133-14.080-4.267-20.907-6.827l31.147-61.013 14.933 76.8c-5.12-1.707-9.813-3.413-14.933-5.12zM181.76 648.533c-5.547-2.133-10.24-5.12-14.507-8.96 14.080-12.373 25.6-28.16 32.853-45.653 2.56-5.547 5.12-11.52 7.253-17.067 2.987 25.6 8.107 51.2 15.787 75.947-3.84 0.853-8.107 1.28-12.373 1.28-9.813 0-20.053-1.707-29.44-5.547zM558.933 620.8c7.68-2.133 14.933-4.693 22.187-7.68 29.867-13.653 62.72-19.2 95.573-16.213 7.253 0.853 14.507 2.133 21.76 3.84 13.227 3.413 25.6 7.253 39.253 11.947h1.28c11.093 4.267 23.040 8.533 35.84 11.947h0.427c5.973 1.707 11.947 3.413 18.347 4.693 17.493 3.84 34.987 5.973 52.48 6.827l-5.973 10.24c-24.747 44.8-46.507 83.627-109.227 79.787-7.68-0.427-14.933 3.84-17.92 11.093-5.973 17.493-2.133 36.693 10.24 50.347-72.96 2.133-165.12-2.133-189.867-24.32-4.693-4.267-11.52-5.547-17.92-3.413-5.973 2.133-10.667 7.253-11.947 13.653-2.987 19.627-2.133 39.253 2.56 58.453-61.013-17.92-192-66.987-240.213-166.4 4.267-3.84 8.533-6.827 12.373-9.813 20.907-16.64 44.8-28.587 70.4-34.987 24.747-4.693 49.92-4.693 74.667 0 4.267 0.853 8.533 1.28 12.8 2.133 20.907 3.84 41.813 5.547 63.147 5.973 20.053 0 39.68-2.56 58.88-7.68v0zM469.333 129.28c-6.4 0-11.947 5.12-11.947 11.947 0 6.4 5.547 11.52 11.947 11.52h36.267c6.4 0 11.947-5.12 11.947-11.52s-5.547-11.947-11.947-11.947h-36.267zM410.88 174.933c-9.387 0-17.493 7.68-17.493 17.493s7.68 17.493 17.493 17.493h152.747c9.387 0 17.493-7.68 17.493-17.493s-7.68-17.493-17.493-17.493h-152.747zM450.56 270.933c-8.533 3.84-12.373 13.653-8.96 22.613 0 0 0 0 0 0.427 4.267 8.533 14.933 12.373 23.467 8.107 6.4-2.56 13.653-3.413 20.48-3.413 7.68 0 15.36 1.28 22.613 3.84 8.96 3.84 19.2 0 23.467-8.96 3.84-8.533 0-18.773-8.533-22.613 0 0-0.427 0-0.853 0-11.947-4.267-24.32-6.4-36.693-6.4s-24.32 2.133-35.84 7.253v0zM591.787 369.067v28.16c0.427 14.080 12.373 24.747 26.453 24.32 13.227-0.427 23.893-11.093 24.32-24.32v-28.16c-0.427-14.080-12.373-24.747-26.453-24.32-13.227 0.427-23.893 11.093-24.32 24.32zM331.947 369.067v28.16c0 14.080 11.52 25.173 25.6 25.173s25.173-11.52 25.173-25.173v-28.16c-0.427-14.080-12.373-24.747-26.453-24.32-13.227 0.427-23.893 11.093-24.32 24.32v0zM563.627 443.307c-9.813 0-17.493 7.68-17.493 17.493s7.68 17.493 17.493 17.493h78.507c9.813 0 17.493-7.68 17.493-17.493s-7.68-17.493-17.493-17.493h-78.507zM331.947 443.307c-9.813 0-17.493 7.68-17.493 17.493s7.68 17.493 17.493 17.493h78.507c9.813 0 17.493-7.68 17.493-17.493s-7.68-17.493-17.493-17.493h-78.507z" />
<glyph unicode="&#xe93c;" glyph-name="unhealthy" d="M459.093 22.613c-25.6 2.56-50.347 12.8-70.4 29.013l-13.227 10.667-32.427 11.093c-23.040 8.107-40.107 26.88-45.227 50.773l-19.2 15.36c-48.64 32.427-77.653 87.040-78.080 145.493v19.2c-43.947 7.68-73.813 49.493-65.707 93.44 5.973 33.707 32 59.733 65.707 65.28-8.533 58.453-32 142.507-60.587 153.173-6.827 2.56-11.52 8.96-11.52 16.213 2.133 22.613 17.92 41.813 39.68 48.213 21.76 9.387 46.080 11.093 69.12 5.12 73.387 142.080 285.013 186.88 294.4 189.013 6.827 1.28 13.653-1.28 17.92-6.4 4.267-5.547 4.693-12.8 1.28-18.773-7.253-13.653-11.093-28.587-12.373-43.947 75.52 17.067 153.173 22.187 229.973 14.933 9.387-0.427 17.067-8.533 16.213-18.347 0-5.547-3.413-11.093-8.107-14.080-11.093-6.827-20.907-15.787-28.16-26.453 71.253-3.84 99.84-55.467 123.307-97.707 6.4-12.373 13.653-23.893 21.333-35.413 3.84-5.547 3.84-12.8 0.427-18.773-3.413-5.547-9.813-8.96-16.64-8.533-24.747 1.707-49.92 0-74.24-5.12l-26.027-133.973c43.52-9.387 71.253-52.48 61.44-96-6.827-31.573-31.573-55.893-63.147-61.867v-19.2c0-58.453-29.44-112.64-78.080-145.493l-19.2-15.36c-5.12-23.467-22.613-42.667-45.227-50.773l-32.427-11.093-13.227-10.667c-20.053-16.213-44.8-26.453-70.4-29.013-19.2-2.133-37.973-2.133-57.173 0v0zM566.613 133.973s2.987-0.853 4.693-0.853c4.693 0 8.96 2.56 11.093 6.827 2.56 5.973 0 12.8-5.973 15.36-57.173 21.76-119.893 21.76-176.64 0-5.973-2.56-8.533-9.387-6.4-15.36 0 0 0 0 0 0 2.987-5.973 9.813-8.533 15.787-5.973 50.773 19.2 107.093 19.2 157.867 0v0zM679.68 170.24c33.707 23.893 55.467 61.44 59.307 102.4-15.787-11.093-34.56-17.067-53.76-16.64-1.707 0-3.413 0-5.547 0.427v-86.187zM296.107 170.24v86.187s-4.267 0-5.973-0.427c-18.773 0-37.547 5.547-52.907 16.213 3.84-40.96 25.6-78.080 58.88-101.973v0zM399.787 225.28c-5.973-2.133-8.533-8.96-6.4-14.507 0 0 0 0 0-0.427 2.56-5.973 9.813-8.533 15.787-5.973 50.773 18.773 107.093 18.773 157.867 0 1.28-0.427 2.987-0.853 4.693-0.853 4.693 0 8.96 2.56 11.093 6.827 2.56 5.973 0 12.373-5.973 15.36v0c-56.747 21.76-119.893 21.76-176.64 0v0zM251.733 620.8c-10.24-52.907-15.36-106.24-15.36-160v-137.387c17.92-32 58.88-43.093 90.88-25.173l95.573 46.933c20.053 10.24 42.667 15.787 65.28 16.213v0c23.040 0 45.653-5.973 66.133-16.64l96-46.933c32-17.067 72.107-5.12 89.173 26.88v126.72l-57.173 111.36c-39.253-3.84-78.507 2.56-114.347 18.773-40.107 14.933-83.627 17.493-125.44 7.253-60.587-15.787-124.587-3.84-175.36 32.427-4.267 2.987-8.96 6.4-13.227 9.813-0.853-2.987-1.28-6.4-2.56-9.813zM775.253 340.053c23.893 8.96 35.84 35.413 26.88 59.307-4.693 12.373-14.507 22.187-26.88 26.453v-86.187zM171.093 383.147c0-19.2 11.947-36.267 29.867-43.093v86.187c-17.92-6.827-29.867-23.893-29.867-43.093v0zM750.080 580.267l-10.24-3.84c-7.253-2.133-14.080-4.693-20.907-6.827l31.147-61.013 15.36 76.373c-5.12-1.707-10.24-2.987-14.933-5.12v0zM182.613 648.533c-5.547-2.133-10.24-5.12-14.507-9.387 14.507-12.373 25.6-27.733 32.853-45.227 2.56-5.547 5.12-11.52 7.68-17.067 2.987 25.6 8.107 51.2 15.36 75.947-3.84 0.853-8.107 1.28-12.373 1.707-10.24 0-20.053-1.707-29.44-5.547v0zM559.787 620.8c7.68-2.133 14.933-4.693 22.187-7.253 29.867-13.653 62.72-19.627 95.573-16.213 7.253 0.853 14.507 2.133 21.76 3.84 12.8 2.987 25.6 7.68 39.253 12.373h1.28c11.093 4.267 22.613 8.533 35.413 11.947h0.427c5.973 1.707 11.947 2.987 18.347 4.693 17.493 3.84 34.987 5.973 52.907 6.827-2.133 3.84-3.84 7.253-5.973 10.667-25.173 44.8-46.507 83.627-109.653 79.36-7.68 0-14.933 4.267-17.493 11.093-6.4 17.067-2.133 36.693 10.24 49.92-72.96 2.133-165.12-2.133-189.867-24.32-4.693-4.267-11.52-5.547-17.493-3.413s-10.667 7.253-11.947 13.653c-3.413 19.627-2.56 39.68 2.56 58.453-61.013-17.92-192-66.987-240.213-166.4 4.267-3.84 8.533-6.827 12.373-9.813 20.48-16.64 44.8-28.587 70.827-34.987 24.747-4.693 49.92-4.693 74.667 0 4.267 0.853 8.96 1.28 13.227 1.707 20.907 3.84 41.813 5.973 63.147 5.973 19.627 0 39.68-2.56 58.453-7.68v0zM593.067 369.067v28.16c0 14.080 11.52 25.173 25.173 25.173s25.173-11.52 25.173-25.173v-28.16c0-14.080-11.52-25.173-25.173-25.173s-25.173 11.52-25.173 25.173zM333.227 369.92v26.88c0 14.080 11.52 25.173 25.173 25.173s25.173-11.52 25.173-25.173v0-26.88c0-14.080-11.52-25.173-25.173-25.173s-25.173 11.52-25.173 25.173zM555.947 462.507c-8.107 4.693-11.093 14.933-6.827 23.040 0 0 0 0 0 0.427 5.12 8.533 15.787 11.093 24.32 6.4 0 0 0 0 0 0 20.48-11.52 43.52-16.213 66.987-14.507 9.387 2.133 18.773-3.413 20.907-12.373 2.56-9.387-3.413-18.773-12.373-20.907-0.853 0-2.133 0-2.987-0.427-0.853 0-5.973-0.853-14.507-0.853-26.453 0-52.48 6.827-75.947 19.627v0zM330.667 443.733c-9.387 0.427-16.64 8.96-16.213 18.347s8.96 16.64 18.347 16.213c0.853 0 2.133 0 2.987-0.427 23.467-1.707 46.507 2.987 66.987 14.507 8.533 5.12 19.2 2.133 24.32-5.973 0 0 0 0 0 0 4.693-8.107 2.133-18.773-5.973-23.467 0 0 0 0-0.427 0-23.040-12.8-49.067-19.627-75.52-19.627-8.96 0.427-14.080 1.28-14.933 1.28v0z" />
<glyph unicode="&#xe93d;" glyph-name="unhealthy-for-sensitive-groups" d="M459.093 23.040c-25.6 2.56-50.347 12.373-70.4 28.587l-110.080 87.893c-48.64 32.427-77.653 87.040-77.653 145.493v19.2c-43.947 8.96-72.107 52.053-62.72 96 6.4 31.147 30.72 55.893 62.293 62.72-8.533 58.453-32 142.507-60.587 153.173-6.827 2.56-11.52 8.96-11.52 16.64 2.133 22.613 17.92 41.813 39.68 48.213 21.76 9.387 46.080 11.093 69.12 4.693 73.387 142.507 285.44 187.307 294.827 189.013 6.827 1.28 13.653-1.28 17.92-6.827s4.693-12.8 1.28-18.773c-6.827-13.653-11.093-29.013-12.373-44.373 75.52 17.493 153.173 22.613 229.973 15.36 7.68 0 14.080-5.547 15.787-13.227 1.707-7.253-1.28-14.933-7.68-18.773-11.093-6.827-20.48-15.787-28.16-26.453 71.253-3.84 99.84-55.893 123.733-97.707 6.4-12.373 13.653-23.893 21.333-35.413 3.84-5.547 4.267-12.8 0.853-18.773-3.413-5.547-9.813-8.96-16.64-8.533-24.747 1.707-49.92 0-74.24-5.12l-26.453-133.973c43.52-9.387 71.253-52.907 61.44-96.427-6.827-31.147-31.573-55.467-63.147-61.867v-19.2c0-58.453-29.44-112.64-77.653-145.493l-110.507-87.893c-20.053-16.213-44.373-26.027-70.4-28.587-9.387-0.853-19.2-1.707-28.587-1.707s-19.2 0-28.587 1.28zM251.733 620.8c-10.24-52.907-15.36-106.24-15.36-160v-176.213c0-46.933 23.467-90.88 62.72-116.907 0.427 0 0.853-0.853 1.28-0.853l110.933-88.32c14.507-11.947 32.427-19.2 51.2-21.333 16.64-1.707 33.28-1.707 49.92 0 18.773 2.133 36.693 9.387 51.627 21.333l110.933 88.32s0.853 0.427 0.853 0.853c39.253 26.027 63.147 69.547 63.147 116.907v166.4l-56.747 111.36c-39.253-3.84-78.507 2.56-114.347 18.773-40.107 14.933-83.627 17.493-125.44 7.68-60.587-15.787-124.587-3.84-175.36 32.427-4.267 2.987-8.533 5.973-13.227 9.387-0.427-2.987-1.28-6.4-1.707-9.813v0zM774.827 340.053c23.893 8.96 35.84 35.413 26.88 59.307-4.693 12.373-14.507 22.187-26.88 26.453v-86.187zM170.667 383.147c0-19.2 11.947-36.267 29.867-43.093v86.187c-17.92-6.827-29.867-23.893-29.867-43.093v0zM749.653 580.267c-3.84-1.28-7.253-2.56-10.667-3.84-6.827-2.133-14.080-4.267-21.333-6.827l21.333-40.96 10.24-20.053 14.933 76.373-14.507-5.12zM181.76 648.96c-5.547-2.133-10.24-5.12-14.080-9.387 14.080-12.373 25.6-27.733 32.853-45.227 2.56-5.547 5.12-11.52 7.253-17.067 2.987 25.6 8.107 51.2 15.36 75.947-3.84 0.853-8.107 1.28-11.947 1.707-10.24 0-20.053-2.133-29.44-5.547v0zM558.933 621.227c7.253-2.133 14.507-4.693 22.187-7.68 29.867-13.653 62.72-19.627 95.573-16.213 7.253 0.853 14.507 2.133 21.76 3.84 12.8 2.987 25.6 7.68 39.253 12.373h1.28c11.093 4.267 22.613 8.533 35.413 11.947h0.427c5.973 1.707 11.947 3.413 18.347 4.693 17.067 3.84 34.987 5.973 52.48 6.827-2.133 3.84-3.84 7.253-5.547 10.667-25.173 44.8-46.507 83.627-109.653 79.787-7.68-0.427-14.933 3.84-17.92 11.093-5.973 17.493-2.133 36.693 10.24 49.92-72.533 2.133-165.12-2.133-190.293-23.893-4.693-4.267-11.52-5.547-17.493-3.84-5.973 2.133-10.24 7.253-11.52 13.653-3.413 19.627-2.56 39.68 2.56 58.88-61.013-18.347-192-66.987-240.213-166.4 4.267-3.413 8.533-6.827 12.373-9.813 20.907-16.64 44.8-28.587 70.827-34.56 24.747-4.693 49.92-4.693 74.667 0 4.267 0.427 8.533 1.28 12.8 1.707 20.907 3.84 41.813 5.973 63.147 5.973 20.053 0 39.68-2.56 58.88-7.68v0zM469.333 139.947c-6.4 0-11.947 4.693-12.373 11.093s4.267 11.947 11.093 12.373h37.973c6.4 0 11.52-5.12 11.52-11.52s-5.12-11.52-11.52-11.52h-36.693zM554.24 177.493c-41.387 23.467-92.16 23.467-133.547 0-8.533-5.12-19.2-2.56-24.747 5.547-5.12 8.107-2.987 18.347 5.12 23.467 0 0 0 0 0 0 53.333 31.147 119.040 31.147 171.947 0 8.107-5.12 10.667-15.36 5.547-23.467 0 0 0 0 0-0.427-3.413-4.693-8.96-7.68-14.507-7.68-3.413 0-6.827 0.853-9.813 2.56v0zM450.987 270.933c-8.533 3.84-12.373 13.653-8.96 22.613 0 0 0 0 0 0.427 4.267 8.533 14.507 12.373 23.467 8.533 6.827-2.56 13.653-3.84 20.907-3.84 7.68 0 15.36 1.28 22.613 3.84 8.96 3.84 19.2 0 23.467-8.96 3.84-8.96-0.427-19.2-9.387-23.040-11.52-4.693-23.893-6.827-36.693-6.4-12.373 0-24.747 2.133-35.84 6.827v0zM592.213 369.067v28.16c0 14.080 11.52 25.173 25.173 25.173s25.173-11.52 25.173-25.173v-28.16c0-14.080-11.52-25.173-25.173-25.173s-25.173 11.52-25.173 25.173zM332.8 369.067v28.16c0 14.080 11.52 25.173 25.6 24.747 13.653 0 24.747-11.093 24.747-24.747v-28.16c0-14.080-11.52-25.173-25.6-24.747-13.653 0-24.747 11.093-24.747 24.747zM555.52 462.507c-8.107 4.693-11.093 14.933-6.827 23.040 0 0 0 0 0 0.853 5.12 8.533 15.787 11.093 24.32 5.973 20.48-11.52 43.947-16.213 66.987-14.507 9.387 1.28 18.773-5.12 20.053-14.507s-5.12-18.347-14.507-19.627v0s-5.973-0.853-14.507-0.853c-26.453 0-52.48 6.827-75.947 19.627v0zM330.24 443.733c-9.387 1.28-16.213 9.813-14.933 19.627v0c1.707 9.813 10.667 16.213 20.053 14.933v0c23.040-1.707 46.507 2.987 66.56 14.507 8.533 5.12 19.2 2.133 24.32-5.973s2.56-18.347-5.547-23.467c0 0 0 0-0.427 0-23.040-12.8-49.067-19.627-75.52-19.627-8.533 0-14.080 0.853-14.933 0.853v0z" />
<glyph unicode="&#xe93e;" glyph-name="very-unhealthy" d="M651.52-59.733l-74.24 61.013c-9.387 7.68-16.213 18.347-20.053 30.293-13.227-5.973-26.88-9.813-41.387-11.52-9.387-0.853-19.2-1.28-28.587-1.28s-19.627 0.427-28.587 1.28c-14.507 1.707-28.587 5.547-41.813 11.52-3.413-11.947-10.24-22.187-20.053-30.293l-74.24-61.013c-2.987-2.987-7.253-4.267-11.52-4.267-5.12 0-10.24 2.133-13.653 6.4l-148.48 174.080c-3.413 3.413-4.693 8.107-4.267 12.8s2.56 8.96 6.4 11.947l32 26.453 8.96 7.68 29.013 23.893c-14.080 25.6-21.333 54.613-21.333 84.053v19.2c-43.947 8.533-72.96 50.773-64.427 94.72 5.973 32.427 31.573 58.027 64 64.427-8.533 58.88-32 142.933-60.587 153.6-6.827 2.56-11.52 8.96-11.52 16.213 2.133 22.613 17.92 41.813 39.68 48.64 21.76 9.387 46.507 11.093 69.12 4.693 73.387 142.933 285.44 187.733 294.4 189.44 6.827 1.28 13.653-1.28 17.92-6.827s4.693-12.8 1.28-18.773c-6.827-13.653-11.093-28.587-12.373-43.947 75.52 17.067 153.173 22.187 230.4 15.36 7.68-0.853 14.080-5.973 15.787-13.227s-1.28-14.933-7.68-18.773c-11.093-6.827-20.48-15.787-27.733-26.453 70.827-3.84 99.84-55.893 123.307-98.133 6.4-12.373 13.227-23.893 20.907-35.413 5.547-8.107 3.413-18.773-4.267-24.32-3.413-2.133-7.253-3.413-11.52-2.987-24.747 1.707-49.92 0-74.24-5.12l-26.453-134.4c43.52-9.813 71.253-52.907 61.44-96.853-6.827-31.573-31.573-55.893-63.147-61.867v-19.2c0-29.44-7.253-58.453-21.333-84.053l29.013-23.893 8.96-7.68 32-26.453c3.413-2.987 5.973-7.253 6.4-11.947s-0.853-9.387-4.267-12.8l-148.48-174.080c-3.413-3.84-8.107-6.4-13.653-6.4-4.267 0-8.533 1.707-11.52 4.267zM646.827-10.667l14.080-11.52 125.867 147.2-14.080 11.52-125.867-147.2zM188.16 125.013l125.44-147.2 14.080 11.52-125.867 147.2-13.653-11.52zM694.187 175.36l-5.547-6.827-94.72-110.507s-2.56-3.413-2.987-5.547c-0.853-2.56-0.853-5.547-0.427-8.533v0c1.28-6.4 4.693-12.373 9.387-16.213l28.587-23.893 125.867 147.2-21.76 17.92-6.827 5.547c-4.693 4.267-11.093 6.4-17.493 6.4-5.547 0-10.667-2.133-14.080-6.4v0zM248.32 174.933l-6.827-5.547-21.76-17.92 125.867-147.2 28.587 23.893c5.12 3.84 8.533 9.813 9.387 15.787 0.427 2.987 0 5.973-0.853 8.96-0.427 2.133-1.707 3.84-2.987 5.547l-95.147 111.36-4.693 5.973c-3.413 3.84-8.533 5.973-13.653 5.973-0.427 0-1.28 0-1.707 0-5.973 0-11.947-2.56-16.64-6.4v0zM381.867 162.987c-0.853-58.027 45.227-105.813 103.253-107.093 58.027-0.853 105.813 45.227 107.093 103.253 0.853 58.027-45.227 105.813-103.253 107.093h-1.707c-57.6 0.427-104.96-45.653-105.387-103.253v0zM672.853 203.52c13.653 10.667 31.147 14.933 48.213 11.093 11.52 20.48 17.493 43.947 17.493 67.413v166.827l-56.747 111.787c-39.253-3.84-78.507 2.56-114.347 18.773-40.107 14.933-83.627 17.493-125.44 7.68-60.587-15.787-125.013-3.84-175.36 32.427-4.693 2.987-8.96 6.4-13.227 9.813-0.853-2.987-1.707-6.4-2.56-9.813-9.813-52.907-15.36-106.667-15.36-160.853v-176.64c0-23.893 5.973-46.933 17.493-67.84 4.693 1.28 9.387 1.707 14.507 1.707 11.093 0 21.76-3.84 30.72-10.24 29.44 44.373 98.133 130.56 189.013 130.56 89.6 0 156.587-86.613 186.027-132.693v0zM773.973 337.92c23.893 8.96 35.84 35.84 26.88 59.733-4.693 12.373-14.507 22.187-26.88 26.88v-86.613zM169.813 381.44c0-19.2 11.947-36.267 29.867-43.52v86.613c-17.92-6.827-29.44-24.32-29.867-43.52v0zM748.8 578.987c-3.413-1.28-7.253-2.56-10.667-3.84-6.827-2.133-14.080-4.693-20.907-6.4l20.907-41.387 10.24-20.053 15.36 76.8c-5.12-1.707-9.813-3.413-14.933-5.12v0zM180.907 647.68c-5.547-2.133-10.24-5.12-14.507-8.96 14.080-12.373 25.6-28.16 32.853-45.653 2.56-5.547 5.12-11.093 7.253-17.067 2.987 26.027 8.107 51.2 15.787 76.373-3.84 0.853-8.107 1.28-12.373 1.28-10.24 0-20.053-1.707-29.44-5.973v0zM558.080 619.947c7.253-2.133 14.507-4.693 22.613-7.68 29.867-13.653 62.72-19.2 95.573-16.213 7.253 0.853 14.507 2.133 21.333 3.84 12.8 2.987 25.6 7.68 39.253 12.373h1.28c11.093 4.267 23.040 8.533 35.413 11.947h0.853c5.973 1.707 11.947 3.413 18.347 4.693 17.493 3.84 34.987 5.973 52.48 6.827-2.133 3.413-3.84 6.827-5.973 10.667-24.747 44.8-46.507 83.627-109.227 79.787-7.68-0.427-14.933 3.84-17.92 11.093-5.973 17.493-2.133 36.693 10.24 50.347-72.533 2.133-165.12-2.133-189.867-24.32-4.693-4.267-11.52-5.547-17.493-3.413s-10.667 7.253-11.52 13.227c-3.413 19.627-2.56 39.68 2.56 58.88-61.013-17.92-192-66.987-240.213-166.827 4.267-3.84 8.533-6.827 12.373-9.813 20.48-16.64 44.8-28.587 70.827-34.56 24.747-4.693 49.92-4.693 74.667 0 4.267 0.427 8.96 1.28 13.227 1.707 20.907 3.413 41.813 5.547 63.147 5.973 20.053 0 39.68-2.56 58.88-8.107v0zM405.333 163.413c-0.853 44.8 34.987 82.347 79.787 83.2s82.347-34.987 83.2-79.787c0.853-44.8-34.987-82.347-79.787-83.2h-1.707c-44.373 0-80.64 35.413-81.493 79.787v0zM440.747 163.413c-0.427-25.6 19.627-46.507 45.227-46.933s46.507 19.627 46.933 45.227-19.627 46.507-45.227 46.933h-0.853c-25.173 0-46.080-20.053-46.080-45.653v0zM591.36 367.36v28.587c0 14.080 11.52 25.173 25.6 24.747 13.653 0 24.747-11.093 24.747-24.747v-28.587c0-14.080-11.52-25.173-25.6-24.747-13.653 0-24.747 11.093-24.747 24.747zM331.52 367.36v28.587c0 14.080 11.52 25.173 25.6 24.747 13.653 0 24.747-11.093 24.747-24.747v-28.587c0-14.080-11.52-25.173-25.6-24.747-13.653 0-24.747 11.093-24.747 24.747zM554.24 461.227c-8.533 4.693-11.093 15.36-6.4 23.467 0 0 0 0 0 0 5.12 8.107 16.213 11.093 24.32 5.973 20.48-11.52 43.52-16.64 66.987-14.507 9.813 1.707 18.773-5.12 20.48-14.933 1.28-9.387-5.547-18.347-14.933-19.627-4.693-0.853-9.813-1.28-14.507-0.853-26.453 0-52.48 6.827-75.52 19.627v0zM328.96 442.453c-9.387 1.28-16.213 10.24-14.507 19.627 0 0 0 0 0 0 1.707 9.387 10.667 16.213 20.053 14.933 23.467-2.133 46.933 2.56 66.987 14.507 8.533 5.12 19.2 2.133 24.32-5.973 4.693-8.107 2.133-18.773-5.973-23.893 0 0 0 0 0 0-23.040-13.227-49.067-20.053-75.52-19.627-4.693 0-9.813 0-14.507 0.853v0z" />
<glyph unicode="&#xe93f;" glyph-name="maximize" d="M640 896v-64h210.88l-274.88-274.56 45.12-45.44 274.88 274.88v-210.88h64v320h-320zM448 338.56l-45.12 45.44-274.88-274.88v210.88h-64v-320h320v64h-210.88l274.88 274.56z" />
<glyph unicode="&#xe940;" glyph-name="minimize" d="M128 384v-64h210.88l-274.88-274.56 45.12-45.44 274.88 274.88v-210.88h64v320h-320zM960 850.56l-45.12 45.44-274.88-274.88v210.88h-64v-320h320v64h-210.88l274.88 274.56z" />
<glyph unicode="&#xe941;" glyph-name="information" d="M465.493 230.827h93.013v259.84h-93.013s0-259.84 0-259.84zM512 570.88c13.653 0 24.747 4.693 34.133 13.653 8.96 8.96 13.653 20.48 13.653 34.133s-4.693 24.747-13.653 34.133c-8.96 8.96-20.48 13.653-34.133 13.653s-24.747-4.693-34.133-13.653c-8.96-8.96-13.653-20.48-13.653-34.133s4.693-24.747 13.653-34.133c8.96-8.96 20.48-13.653 34.133-13.653zM512 12.8c-60.587 0-116.907 11.52-169.813 34.133-52.907 23.040-98.987 53.76-138.24 93.013s-69.973 85.333-93.013 138.24c-23.040 52.907-34.133 109.653-34.133 169.813s11.52 116.907 34.133 169.813c23.040 52.907 53.76 98.987 93.013 138.24s85.333 69.973 138.24 93.013c52.907 23.040 109.653 34.133 169.813 34.133s116.907-11.52 169.813-34.133c52.907-23.040 98.987-53.76 138.24-93.013s69.973-85.333 93.013-138.24c23.040-52.907 34.133-109.653 34.133-169.813s-11.52-116.907-34.133-169.813c-23.040-52.907-53.76-98.987-93.013-138.24s-85.333-69.973-138.24-93.013c-52.907-23.040-109.653-34.133-169.813-34.133zM512 109.653c94.72 0 174.507 32.853 240.213 98.133 65.28 65.28 98.133 145.493 98.133 240.213s-32.853 174.507-98.133 240.213c-65.28 65.28-145.493 98.133-240.213 98.133s-174.507-32.853-240.213-98.133c-65.28-65.28-98.133-145.493-98.133-240.213s32.853-174.507 98.133-240.213c65.28-65.28 145.493-98.133 240.213-98.133z" />
<glyph unicode="&#xe942;" glyph-name="add" d="M463.36 399.36h-258.987v97.28h258.987v258.987h97.28v-258.987h258.987v-97.28h-258.987v-258.987h-97.28v258.987z" />
<glyph unicode="&#xe943;" glyph-name="logo--linkedin" d="M838.4 832h-652.8c-32 0-57.6-25.6-57.6-54.4v-656c0-28.8 25.6-54.4 57.6-54.4h652.8c32 0 57.6 25.6 57.6 54.4v656c0 28.8-25.6 54.4-57.6 54.4zM355.2 179.2h-112v364.8h112v-364.8zM300.8 595.2c-35.2 0-67.2 28.8-67.2 67.2s28.8 67.2 67.2 67.2c35.2 0 67.2-28.8 67.2-67.2s-32-67.2-67.2-67.2zM784 182.4h-112v179.2c0 41.6 0 99.2-60.8 99.2s-67.2-48-67.2-92.8v-182.4h-112v358.4h105.6v-48h3.2c16 28.8 54.4 60.8 108.8 60.8 115.2 0 137.6-76.8 137.6-176v-198.4h-3.2z" />
<glyph unicode="&#xe944;" glyph-name="logo--tiktok" d="M835.84 674.88c-87.36 18.56-152.64 92.16-160.96 181.12v18.88h-146.88v-583.36c0-68.16-55.68-123.52-123.84-123.2-38.4 0-74.56 18.24-97.92 48.64v0s0 0 0 0c-41.28 54.4-30.72 131.84 23.68 173.12 32 24.32 73.92 31.68 112.32 19.2v149.44c-147.84 20.48-284.16-82.88-304.32-230.4-11.52-82.56 16-166.080 74.24-225.6 104.32-106.56 275.2-108.48 382.080-4.48 51.84 50.88 81.28 120.32 81.28 193.28v297.92c59.52-42.56 130.56-65.28 203.52-64.96v145.92c-14.4 0-28.8 1.6-42.88 4.48z" />
<glyph unicode="&#xe945;" glyph-name="light--filled" d="M512 331.947c32.427 0 59.733 11.52 82.347 33.707 22.613 22.613 33.707 49.92 33.707 82.347s-11.52 59.733-33.707 82.347c-22.613 22.613-49.92 33.707-82.347 33.707s-59.733-11.52-82.347-33.707c-22.613-22.613-33.707-49.92-33.707-82.347s11.52-59.733 33.707-82.347c22.613-22.613 49.92-33.707 82.347-33.707zM512 234.667c-58.88 0-109.227 20.907-151.040 62.293s-62.293 91.733-62.293 151.040 20.907 109.227 62.293 151.040 91.733 62.293 151.040 62.293 109.227-20.907 151.040-62.293 62.293-91.733 62.293-151.040-20.907-109.227-62.293-151.040-91.733-62.293-151.040-62.293zM219.307 399.36h-182.613v97.28h182.613v-97.28zM987.307 399.36h-182.613v97.28h182.613v-97.28zM463.36 740.693v182.613h97.28v-182.613h-97.28zM463.36-27.307v182.613h97.28v-182.613h-97.28zM272.64 620.8l-115.627 111.787 68.693 71.68 110.933-114.347s-64-69.12-64-69.12zM797.867 92.16l-112.213 115.2 64.853 67.413 116.053-110.933s-68.693-71.68-68.693-71.68zM684.8 686.933l110.933 116.053 71.68-68.693-114.347-110.933-68.267 64zM156.16 161.707l115.2 112.213 67.413-64.853-110.933-116.053s-71.68 68.693-71.68 68.693z" />
<glyph unicode="&#xe946;" glyph-name="asleep--filled" d="M512 60.16c-107.52 0-199.253 37.547-274.773 113.067s-113.067 166.827-113.067 274.773 37.547 199.253 113.067 274.773c75.52 75.52 166.827 113.067 274.773 113.067 9.387 0 18.773 0 28.16-0.853 9.387-0.427 18.347-1.707 27.307-2.987-27.307-21.333-48.64-48.213-65.28-80.213-16.213-32-24.32-66.56-24.32-103.68 0-65.28 23.040-120.747 68.693-166.4s101.12-68.267 166.827-68.267c37.547 0 72.107 8.107 104.107 24.32s58.453 37.973 79.36 64.853c1.28-8.96 2.133-17.92 2.987-26.88 0.427-8.96 0.853-18.347 0.853-27.733 0-107.52-37.547-199.253-113.067-274.773s-167.253-113.067-274.773-113.067zM512 157.013c58.027 0 110.933 15.36 157.867 46.507s81.92 72.107 104.96 122.453c-12.373-2.987-25.173-5.12-37.547-6.827s-24.747-2.133-37.12-2.133c-86.613 2.987-160.853 34.56-221.867 95.147s-93.44 135.253-96.427 223.147c0 12.373 0.427 24.747 2.133 37.12s3.84 24.747 6.827 37.12c-50.347-23.040-91.307-58.027-122.453-105.387-31.147-46.933-46.933-99.413-46.933-157.44 0-80.213 28.587-148.907 85.333-205.653s125.44-85.333 205.653-85.333z" />
</font>
</defs>
</svg>
